Autor Tema: Porqué se ve mejor una peli con la mitad de bibrate ?.  (Leído 227 veces)

0 Usuarios y 1 Visitante están viendo este tema.

h4pp1

  • Miembro nuevo
  • *
  • Desconectado Desconectado
  • Registrado: 12/12/2017
  • Mensajes: 7
  • Valoración: 0
Hola a tod@s.

Hace meses que estoy logueado pero la verdad nunca he tenido que pediros consejo , sois un grupo de un nivel muy avanzado y me pierdo bastante con los datos técnicos , por eso creo que acabé haciendo mis encodeos con Handbrake y a lo sumo con Avidemux , tambien porque estoy en Gnu/Linux , la verdad  y no puedo utilizar Megui :-D

Al lio ...Estoy tratando de reducir mis encodeos lo máximo posible , mis fuentes son mayormente BDremux y actualmente las encodeo con Handbrake , 2 pasadas 7500 Kbps , es mucho bibrate lo sé , pero actualmnete tengo una 4K y  los MHD que anteriormente veia  aveces se veian pobres de calidad, 7000-7500 Kbps es lo que actualmente utilizo, para muestra un boton:


Spoiler
General
Count                                    : 330
Count of stream of this kind             : 1
Kind of stream                           : General
Kind of stream                           : General
Stream identifier                        : 0
Inform                                   : Matroska: 6.04 GiB, 1 h 55 min
Unique ID                                : 75145725719000336691910241677816192565
Unique ID                                : 75145725719000336691910241677816192565 (0x38888A536D4881272B4D2C6D96E95E35)
Count of video streams                   : 1
Video_Format_List                        : AVC
Video_Format_WithHint_List               : AVC
Codecs Video                             : AVC
Video_Language_List                      : English
Complete name                            : /home/javi/Vídeos/Tres.anuncios.en.las.afueras.mkv
Folder name                              : /home/javi/Vídeos
File name                                : Tres.anuncios.en.las.afueras.mkv
File name                                : Tres.anuncios.en.las.afueras
File extension                           : mkv
Format                                   : Matroska
Format                                   : Matroska
Format/Url                               : https://matroska.org/downloads/windows.html
Format/Extensions usually used           : mkv mk3d mka mks
Commercial name                          : Matroska
Format version                           : Version 4 / Version 2
Codec                                    : Matroska
Codec                                    : Matroska
Codec/Url                                : https://matroska.org/downloads/windows.html
Codec/Extensions usually used            : mkv mk3d mka mks
File size                                : 6487167904
File size                                : 6.04 GiB
File size                                : 6 GiB
File size                                : 6.0 GiB
File size                                : 6.04 GiB
File size                                : 6.042 GiB
Duration                                 : 6920831
Duration                                 : 1 h 55 min
Duration                                 : 1 h 55 min 20 s 831 ms
Duration                                 : 1 h 55 min
Duration                                 : 01:55:20.831
Duration                                 : 01:55:22;14
Duration                                 : 01:55:20.831 (01:55:22;14)
Overall bit rate                         : 7498716
Overall bit rate                         : 7 499 kb/s
Frame rate                               : 23.976
Frame rate                               : 23.976 FPS
Frame count                              : 165934
Stream size                              : 1385167
Stream size                              : 1.32 MiB (0%)
Stream size                              : 1 MiB
Stream size                              : 1.3 MiB
Stream size                              : 1.32 MiB
Stream size                              : 1.321 MiB
Stream size                              : 1.32 MiB (0%)
Proportion of this stream                : 0.00021
IsStreamable                             : Yes
Encoded date                             : UTC 2018-06-04 10:39:12
File last modification date              : UTC 2018-06-04 10:40:54
File last modification date (local)      : 2018-06-04 12:40:54
Writing application                      : mkvmerge v23.0.0 ('The Bride Said No') 64-bit
Writing application                      : mkvmerge v23.0.0 ('The Bride Said No') 64-bit
Writing library                          : libebml v1.3.6 + libmatroska v1.4.9
Writing library                          : libebml v1.3.6 + libmatroska v1.4.9

Video
Count                                    : 344
Count of stream of this kind             : 1
Kind of stream                           : Video
Kind of stream                           : Video
Stream identifier                        : 0
StreamOrder                              : 0
Inform                                   : 7 500 kb/s, 1920*804 (2.40:1), at 23.976 (24000/1001) FPS, AVC (High@L4.1) (CABAC / 5 Ref Frames)
ID                                       : 1
ID                                       : 1
Unique ID                                : 1
Format                                   : AVC
Format/Info                              : Advanced Video Codec
Format/Url                               : http://developers.videolan.org/x264.html
Commercial name                          : AVC
Format profile                           : High@L4.1
Format settings                          : CABAC / 5 Ref Frames
Format settings, CABAC                   : Yes
Format settings, CABAC                   : Yes
Format settings, ReFrames                : 5
Format settings, ReFrames                : 5 frames
Internet media type                      : video/H264
Codec ID                                 : V_MPEG4/ISO/AVC
Codec ID/Url                             : http://ffdshow-tryout.sourceforge.net/
Codec                                    : V_MPEG4/ISO/AVC
Codec                                    : AVC
Codec/Family                             : AVC
Codec/Info                               : Advanced Video Codec
Codec/Url                                : http://ffdshow-tryout.sourceforge.net/
Codec profile                            : High@L4.1
Codec settings                           : CABAC / 5 Ref Frames
Codec settings, CABAC                    : Yes
Codec_Settings_RefFrames                 : 5
Duration                                 : 6920831.000000
Duration                                 : 1 h 55 min
Duration                                 : 1 h 55 min 20 s 831 ms
Duration                                 : 1 h 55 min
Duration                                 : 01:55:20.831
Duration                                 : 01:55:22;14
Duration                                 : 01:55:20.831 (01:55:22;14)
Bit rate                                 : 7500000
Bit rate                                 : 7 500 kb/s
Width                                    : 1920
Width                                    : 1 920 pixels
Height                                   : 804
Height                                   : 804 pixels
Stored_Height                            : 816
Sampled_Width                            : 1920
Sampled_Height                           : 804
Pixel aspect ratio                       : 1.000
Display aspect ratio                     : 2.388
Display aspect ratio                     : 2.40:1
Frame rate mode                          : CFR
Frame rate mode                          : Constant
FrameRate_Mode_Original                  : VFR
Frame rate                               : 23.976
Frame rate                               : 23.976 (24000/1001) FPS
FrameRate_Num                            : 24000
FrameRate_Den                            : 1001
Frame count                              : 165934
Resolution                               : 8
Resolution                               : 8 bits
Colorimetry                              : 4:2:0
Color space                              : YUV
Chroma subsampling                       : 4:2:0
Chroma subsampling                       : 4:2:0
Bit depth                                : 8
Bit depth                                : 8 bits
Scan type                                : Progressive
Scan type                                : Progressive
Interlacement                            : PPF
Interlacement                            : Progressive
Bits/(Pixel*Frame)                       : 0.203
Delay                                    : 0
Delay                                    : 00:00:00.000
Delay, origin                            : Container
Delay, origin                            : Container
Stream size                              : 6485782737
Stream size                              : 6.04 GiB (100%)
Stream size                              : 6 GiB
Stream size                              : 6.0 GiB
Stream size                              : 6.04 GiB
Stream size                              : 6.040 GiB
Stream size                              : 6.04 GiB (100%)
Proportion of this stream                : 0.99979
Writing library                          : x264 - core 152 r2854 e9a5903
Writing library                          : x264 core 152 r2854 e9a5903
Encoded_Library_Name                     : x264
Encoded_Library_Version                  : core 152 r2854 e9a5903
Encoding settings                        : cabac=1 / ref=5 / deblock=1:-1:-1 / analyse=0x3:0x113 / me=hex / subme=8 / psy=1 / psy_rd=1,00:0,15 / mixed_ref=1 / me_range=16 / chroma_me=1 / trellis=2 / 8x8dct=1 / cqm=0 / deadzone=21,11 / fast_pskip=1 / chroma_qp_offset=-3 / threads=9 / lookahead_threads=1 / sliced_threads=0 / nr=0 / decimate=1 / interlaced=0 / bluray_compat=0 / constrained_intra=0 / bframes=3 / b_pyramid=2 / b_adapt=1 / b_bias=0 / direct=3 / weightb=1 / open_gop=0 / weightp=2 / keyint=240 / keyint_min=24 / scenecut=40 / intra_refresh=0 / rc_lookahead=50 / rc=2pass / mbtree=1 / bitrate=7500 / ratetol=1,0 / qcomp=0,60 / qpmin=0 / qpmax=69 / qpstep=4 / cplxblur=20,0 / qblur=0,5 / vbv_maxrate=62500 / vbv_bufsize=78125 / nal_hrd=none / filler=0 / ip_ratio=1,40 / aq=1:1,00
Default                                  : Yes
Default                                  : Yes
Forced                                   : No
Forced                                   : No
Color range                              : Limited
colour_description_present               : Yes
Color primaries                          : BT.709
Transfer characteristics                 : BT.709
Matrix coefficients                      : BT.709

Este ejemplo sólo es el video , el audio es un tema que de momento no voy a tocar.El problema es que me generan un archivo , normalmente de unos 7-8 GB , y el disco duro se me llena que da gusto , por eso quiero reducir peso.He estado investigando otros encodeos por la web y me he encontado con este:

Spoiler
General
Count                                    : 330
Count of stream of this kind             : 1
Kind of stream                           : General
Kind of stream                           : General
Stream identifier                        : 0
Inform                                   : Matroska: 2.71 GiB, 1 h 55 min
Unique ID                                : 271060847685663779961460429819897471431
Unique ID                                : 271060847685663779961460429819897471431 (0xCBEC6B9ACDFA4CAAA85F28B5A14061C7)
Count of video streams                   : 1
Video_Format_List                        : AVC
Video_Format_WithHint_List               : AVC
Codecs Video                             : AVC
Video_Language_List                      : English
Complete name                            : /home/javi/Vídeos/Tres.Anuncios.En.Las.Afueras.mkv
Folder name                              : /home/javi/Vídeos
File name                                : Tres.Anuncios.En.Las.Afueras.mkv
File name                                : Tres.Anuncios.En.Las.Afueras
File extension                           : mkv
Format                                   : Matroska
Format                                   : Matroska
Format/Url                               : https://matroska.org/downloads/windows.html
Format/Extensions usually used           : mkv mk3d mka mks
Commercial name                          : Matroska
Format version                           : Version 4 / Version 2
Codec                                    : Matroska
Codec                                    : Matroska
Codec/Url                                : https://matroska.org/downloads/windows.html
Codec/Extensions usually used            : mkv mk3d mka mks
File size                                : 2906865845
File size                                : 2.71 GiB
File size                                : 3 GiB
File size                                : 2.7 GiB
File size                                : 2.71 GiB
File size                                : 2.707 GiB
Duration                                 : 6920831
Duration                                 : 1 h 55 min
Duration                                 : 1 h 55 min 20 s 831 ms
Duration                                 : 1 h 55 min
Duration                                 : 01:55:20.831
Duration                                 : 01:55:22;14
Duration                                 : 01:55:20.831 (01:55:22;14)
Overall bit rate                         : 3360135
Overall bit rate                         : 3 360 kb/s
Frame rate                               : 23.976
Frame rate                               : 23.976 FPS
Frame count                              : 165934
Stream size                              : 1286943
Stream size                              : 1.23 MiB (0%)
Stream size                              : 1 MiB
Stream size                              : 1.2 MiB
Stream size                              : 1.23 MiB
Stream size                              : 1.227 MiB
Stream size                              : 1.23 MiB (0%)
Proportion of this stream                : 0.00044
IsStreamable                             : Yes
Encoded date                             : UTC 2018-06-04 10:43:15
File last modification date              : UTC 2018-06-04 10:44:00
File last modification date (local)      : 2018-06-04 12:44:00
Writing application                      : mkvmerge v23.0.0 ('The Bride Said No') 64-bit
Writing application                      : mkvmerge v23.0.0 ('The Bride Said No') 64-bit
Writing library                          : libebml v1.3.6 + libmatroska v1.4.9
Writing library                          : libebml v1.3.6 + libmatroska v1.4.9

Video
Count                                    : 344
Count of stream of this kind             : 1
Kind of stream                           : Video
Kind of stream                           : Video
Stream identifier                        : 0
StreamOrder                              : 0
Inform                                   : English, 3 359 kb/s, 1920*800 (2.40:1), at 23.976 (24000/1001) FPS, AVC (High@L4) (CABAC / 5 Ref Frames)
ID                                       : 1
ID                                       : 1
Unique ID                                : 1
Format                                   : AVC
Format/Info                              : Advanced Video Codec
Format/Url                               : http://developers.videolan.org/x264.html
Commercial name                          : AVC
Format profile                           : High@L4
Format settings                          : CABAC / 5 Ref Frames
Format settings, CABAC                   : Yes
Format settings, CABAC                   : Yes
Format settings, ReFrames                : 5
Format settings, ReFrames                : 5 frames
Internet media type                      : video/H264
Codec ID                                 : V_MPEG4/ISO/AVC
Codec ID/Url                             : http://ffdshow-tryout.sourceforge.net/
Codec                                    : V_MPEG4/ISO/AVC
Codec                                    : AVC
Codec/Family                             : AVC
Codec/Info                               : Advanced Video Codec
Codec/Url                                : http://ffdshow-tryout.sourceforge.net/
Codec profile                            : High@L4
Codec settings                           : CABAC / 5 Ref Frames
Codec settings, CABAC                    : Yes
Codec_Settings_RefFrames                 : 5
Duration                                 : 6920831.000000
Duration                                 : 1 h 55 min
Duration                                 : 1 h 55 min 20 s 831 ms
Duration                                 : 1 h 55 min
Duration                                 : 01:55:20.831
Duration                                 : 01:55:22;14
Duration                                 : 01:55:20.831 (01:55:22;14)
Bit rate                                 : 3358647
Bit rate                                 : 3 359 kb/s
Width                                    : 1920
Width                                    : 1 920 pixels
Height                                   : 800
Height                                   : 800 pixels
Sampled_Width                            : 1920
Sampled_Height                           : 800
Pixel aspect ratio                       : 1.000
Display aspect ratio                     : 2.400
Display aspect ratio                     : 2.40:1
Frame rate mode                          : CFR
Frame rate mode                          : Constant
Frame rate                               : 23.976
Frame rate                               : 23.976 (24000/1001) FPS
FrameRate_Num                            : 24000
FrameRate_Den                            : 1001
Frame count                              : 165934
Resolution                               : 8
Resolution                               : 8 bits
Colorimetry                              : 4:2:0
Color space                              : YUV
Chroma subsampling                       : 4:2:0
Chroma subsampling                       : 4:2:0
Bit depth                                : 8
Bit depth                                : 8 bits
Scan type                                : Progressive
Scan type                                : Progressive
Interlacement                            : PPF
Interlacement                            : Progressive
Bits/(Pixel*Frame)                       : 0.091
Delay                                    : 0
Delay                                    : 00:00:00.000
Delay, origin                            : Container
Delay, origin                            : Container
Stream size                              : 2905578902
Stream size                              : 2.71 GiB (100%)
Stream size                              : 3 GiB
Stream size                              : 2.7 GiB
Stream size                              : 2.71 GiB
Stream size                              : 2.706 GiB
Stream size                              : 2.71 GiB (100%)
Proportion of this stream                : 0.99956
Writing library                          : x264 - core 152 r2851 ba24899
Writing library                          : x264 core 152 r2851 ba24899
Encoded_Library_Name                     : x264
Encoded_Library_Version                  : core 152 r2851 ba24899
Encoding settings                        : cabac=1 / ref=5 / deblock=1:-1:-1 / analyse=0x3:0x113 / me=hex / subme=8 / psy=1 / psy_rd=1.00:0.15 / mixed_ref=1 / me_range=16 / chroma_me=1 / trellis=2 / 8x8dct=1 / cqm=0 / deadzone=21,11 / fast_pskip=1 / chroma_qp_offset=-3 / threads=24 / lookahead_threads=4 / sliced_threads=0 / nr=0 / decimate=1 / interlaced=0 / bluray_compat=0 / constrained_intra=0 / bframes=3 / b_pyramid=2 / b_adapt=1 / b_bias=0 / direct=3 / weightb=1 / open_gop=0 / weightp=2 / keyint=250 / keyint_min=23 / scenecut=40 / intra_refresh=0 / rc_lookahead=50 / rc=crf / mbtree=1 / crf=21.0 / qcomp=0.60 / qpmin=0 / qpmax=69 / qpstep=4 / ip_ratio=1.40 / aq=1:1.00
Language                                 : en
Language                                 : English
Language                                 : English
Language                                 : en
Language                                 : eng
Language                                 : en
Default                                  : Yes
Default                                  : Yes
Forced                                   : No
Forced                                   : No

Misma película  y con un tamaño de la mitad y mejor calidad ( comprobado , os puedo pasar alguna captura) .Como ya os he comentado , el nivel técnico lo llevo fatal , Handbrake es lo que tiene , que es todo automatizado y cómodo.He hecho pruebas de todo tipo tanto con Handbrake como con Avidemux , para lograr la calidad/peso del segundo encodeo que os he puesto , pero no lo consigo , llevo varios días con esto , por eso os escribo.

Es posible que en el MediaInfo que os he pasado podais ver algo que yo no puedo ver , que seguramente se me escape algo , por desconocimiento.Estas son las únicas diferencias notables que veo yo en los dos trabajos:

El primero es el mio :

-rc=2pass
-bitrate=7500
-threads=9
-vbv_maxrate=62500 , vbv_bufsize=78125

El Segundo:
-crf=21.0
-threads=24
-Bibrate=3 360 kb/s

Me imagino que el segundo encodeo se realiza con un procesador bastante potente , mi pc es el siguiente:

- GIGABYTE GA-970A-DS3
- AMD PHENOM II X6 1090T
- NH-U12S , RIPJAWSX 16GB 1600
- GeForce GTX 750 Ti 2GB GDDR5
- 120GB SAMSUNG SSD 840

Podeis ver porque una se ve mejor que la otra con la mitad de bibrate ??.

Adjunto un .7z con dos capturas.

Saludos.

« Última modificación: 05 de Junio de 2018, 17:03 por h4pp1 »


Spoiler
FRACTAK DEFINE XL BLACK // GIGABYTE GA-970A-DS3  // AMD PHENOM II X6 1090T // NH-U12S // RIPJAWSX 16GB 1600 // GeForce GTX 750 Ti 2GB GDDR5 // 120GB SAMSUNG SSD 840 // AEROCOOL STRIKE-X POWER 800W // ACER KA270Habid 27"

profiler 2.0

  • Colaborador
  • ******
  • Desconectado Desconectado
  • Registrado: 26/11/2009
  • Mensajes: 2.351
  • Valoración: 20
  • Sexo: Masculino
 Hola:


los encodeos son como las persona a veces lucen muy bien por fuera, pero internamente no tienen la misma calidad (es solo apariencia).

si para ti luce mejor, es así...

Y si un video tiene mas Bitrate no significa que será de mejor calidad (a veces se desperdicia el Bitrate).

lo que si sabemos es que "si un video tiene mas compresión, tiene mas perdida  de calidad siempre con respecto al original", y que no se note visualmente es otra cosa.



tebasuna51

  • Moderador
  • ******
  • Desconectado Desconectado
  • Registrado: 22/02/2010
  • Mensajes: 4.524
  • Valoración: 249
A efectos de ver diferencias de calidad en las capturas deben guardarse en formato .png, en cuanto uses .jpg se producen artefactos debido a su recodificación con pérdidas. Es muy posible que el original de la  7 500 kb/s sea mejor pero al recodificarse a jpg se vea peor o igual.

Como dices la diferencia es solo:

-rc=2pass -bitrate=7500

El Segundo:
-crf=21.0 (que produce un  Bitrate=3 360 kb/s)

(La potencia del PC solo influirá en el tiempo que tarde)

Por tanto tu codificación usando -crf=21.0 (por cierto, método recomendado y más rapido) debería ser idéntica.
Y si no lo es es porque las fuentes son distintas, por ejemplo se podría haber filtrado con AviSynth la imagen del BD para reducir grano/ruido y hacer la imagen más compresible (yo lo hago a menudo para reducir bitrate).


h4pp1

  • Miembro nuevo
  • *
  • Desconectado Desconectado
  • Registrado: 12/12/2017
  • Mensajes: 7
  • Valoración: 0
Ante todo gracias a ambos por vuestra ayuda y aclaraciones !!.
Citar
si un video tiene mas Bitrate no significa que será de mejor calidad (a veces se desperdicia el Bitrate).

Gracias , me estoy dando cuenta que así es.

A efectos de ver diferencias de calidad en las capturas deben guardarse en formato .png, en cuanto uses .jpg se producen artefactos debido a su recodificación con pérdidas. Es muy posible que el original de la  7 500 kb/s sea mejor pero al recodificarse a jpg se vea peor o igual.

He guadado las capturas en .png  y el resulatdo es el mismo.Adjunto nuevas capturas en .png.

Citar
(La potencia del PC solo influirá en el tiempo que tarde)

Gracias , pensaba que podia influir en la calidad.

Citar
Por tanto tu codificación usando -crf=21.0 (por cierto, método recomendado y más rapido) debería ser idéntica.

Mi codificación es la de dos pasadas  :-D, apunto lo de cfr 21 , no  sabia que era la más óptima , por rapidez no hay problema , cada vez busco más calidad que rapidez (estos días llevo codificando a veryslow , que por lo que creo si que puede influir en la calidad).Lo que pasa que en la pruebas que hice hace tiempo , el tamaño del archivo resultante en la codificación a  CFR era un poco una incógnita y era importante para mi controlar el tamaño , por eso me decante por la dos pasadas.

Citar
Y si no lo es es porque las fuentes son distintas, por ejemplo se podría haber filtrado con AviSynth la imagen del BD para reducir grano/ruido y hacer la imagen más compresible (yo lo hago a menudo para reducir bitrate).

Es lo que he estado pensando también , que la fuente fuese distinta , estoy probando esa posibilidad y estoy mirando de obtener otras fuentes.Lo de AviSynth se me escapa , es algo que nunca he tocado.De todas formas no soy muy partidario de reducir grano/ruido ,  es una cosa que hace tiempo dejé de preocuparme por ella , entendiendo , rectificarme si me equivoco , que muchas películas (actuales) ya vienen con una cantidad de ruido/grano así , por decisiones técnicas/artísticas del director y eliminándolo reducías la calidad de la imagen , por así decirlo.Entiendo que si tu lo has hecho aveces es para reducir bibrate.
Spoiler
FRACTAK DEFINE XL BLACK // GIGABYTE GA-970A-DS3  // AMD PHENOM II X6 1090T // NH-U12S // RIPJAWSX 16GB 1600 // GeForce GTX 750 Ti 2GB GDDR5 // 120GB SAMSUNG SSD 840 // AEROCOOL STRIKE-X POWER 800W // ACER KA270Habid 27"

tebasuna51

  • Moderador
  • ******
  • Desconectado Desconectado
  • Registrado: 22/02/2010
  • Mensajes: 4.524
  • Valoración: 249
En tus MediaInfo no dices cual es cual, observando las capturas me inclinaría a decir que la Geot es la de mayor bitrate con bastante más detalle que la Phenom.

Si lo importante para ti es el tamaño sigue usando el método a 2 pasadas, en ese caso lo que desconecerás es la calidad obtenida.

Por ello se recomienda el método a calidad constante, sin importar el tamaño, aunque la calidad es a elegir en un rango de crf 16 (gran calidad) a crf 21 (mínima calidad recomendable). Yo suelo usar 18 o 19 según me interese más o menos la peli.

h4pp1

  • Miembro nuevo
  • *
  • Desconectado Desconectado
  • Registrado: 12/12/2017
  • Mensajes: 7
  • Valoración: 0
En tus MediaInfo no dices cual es cual, observando las capturas me inclinaría a decir que la Geot es la de mayor bitrate con bastante más detalle que la Phenom.

Si lo importante para ti es el tamaño sigue usando el método a 2 pasadas, en ese caso lo que desconecerás es la calidad obtenida.

Por ello se recomienda el método a calidad constante, sin importar el tamaño, aunque la calidad es a elegir en un rango de crf 16 (gran calidad) a crf 21 (mínima calidad recomendable). Yo suelo usar 18 o 19 según me interese más o menos la peli.

Perdona la confusión  por los Mediainfo,  el método a una pasada a 21 cfr y un peso de 2,9 GB, parece que da más buenos resultados que a dos pasadas a 7 500 kb/s y  6,5 GB (tambien creo que la fuente tiene mucho que ver).Si que es importante para mi el peso , pero miraré de  volver ha hacer pruebas de CFR/peso/Duración de la peli , haber como lo puedo ajustar !! :-D

Gracias.
Spoiler
FRACTAK DEFINE XL BLACK // GIGABYTE GA-970A-DS3  // AMD PHENOM II X6 1090T // NH-U12S // RIPJAWSX 16GB 1600 // GeForce GTX 750 Ti 2GB GDDR5 // 120GB SAMSUNG SSD 840 // AEROCOOL STRIKE-X POWER 800W // ACER KA270Habid 27"

tebasuna51

  • Moderador
  • ******
  • Desconectado Desconectado
  • Registrado: 22/02/2010
  • Mensajes: 4.524
  • Valoración: 249
...el método a una pasada a 21 cfr y un peso de 2,9 GB, parece que da más buenos resultados que a dos pasadas a 7 500 kb/s y  6,5 GB (tambien creo que la fuente tiene mucho que ver).

Entonces, ¿el de21 crf y peso de 2,9 GB es el Geot?

Algo raro debe haber ahí con las fuentes, porque no tiene mucho sentido que el Phenom use más bitrate que el Geot.

h4pp1

  • Miembro nuevo
  • *
  • Desconectado Desconectado
  • Registrado: 12/12/2017
  • Mensajes: 7
  • Valoración: 0
Citar
Entonces, ¿el de21 crf y peso de 2,9 GB es el Geot?

Si

Citar
Algo raro debe haber ahí con las fuentes, porque no tiene mucho sentido que el Phenom use más bitrate que el Geot.

Coincido contigo!.
Spoiler
FRACTAK DEFINE XL BLACK // GIGABYTE GA-970A-DS3  // AMD PHENOM II X6 1090T // NH-U12S // RIPJAWSX 16GB 1600 // GeForce GTX 750 Ti 2GB GDDR5 // 120GB SAMSUNG SSD 840 // AEROCOOL STRIKE-X POWER 800W // ACER KA270Habid 27"

Raner17

  • Miembro nuevo
  • *
  • Desconectado Desconectado
  • Registrado: 01/10/2012
  • Mensajes: 14
  • Valoración: 0
Segun veo en las capturas, simplemente en uno de ellos se ha usado un filtro sharpen dandole mayor nitidez a la imagen.
En este tipo de pelis sin apenas granulado filmico son muy compresibles con 3000 de bitrate lucen bien, aunque el encode de 7500 debria verse bastante mejor sobre todo en las escenas oscuras.

Salu2

LuchoO

  • Moderador
  • ******
  • Desconectado Desconectado
  • Registrado: 10/02/2004
  • Mensajes: 5.591
  • Valoración: 55
  • Sexo: Masculino
Esta pelicula tiene un video compresible, en su momento lo codifique:

Spoiler
General
Complete name : Three.Billboards.Outside.Ebbing.Missouri.2017.BDrip.H264.1080p.Lat.Ac3.mkv
Format : Matroska
Format version : Version 4 / Version 2
File size : 4.50 GiB
Duration : 1 h 55 min
Overall bit rate : 5 588 kb/s
Encoded date : UTC 2018-02-20 11:08:46
Writing application : mkvmerge v12.0.0 ('Trust / Lust') 64bit
Writing library : libebml v1.3.4 + libmatroska v1.4.5

Video
ID : 1
Format : AVC
Format/Info : Advanced Video Codec
Format profile : High@L4.1
Format settings : CABAC / 4 Ref Frames
Format settings, CABAC : Yes
Format settings, RefFrames : 4 frames
Codec ID : V_MPEG4/ISO/AVC
Duration : 1 h 55 min
Bit rate : 5 139 kb/s
Width : 1 920 pixels
Height : 800 pixels
Display aspect ratio : 2.40:1
Frame rate mode : Constant
Frame rate : 23.976 (24000/1001) FPS
Color space : YUV
Chroma subsampling : 4:2:0
Bit depth : 8 bits
Scan type : Progressive
Bits/(Pixel*Frame) : 0.140
Stream size : 4.14 GiB (92%)
Writing library : x264 core 155 r2893 b00bcaf
Encoding settings : cabac=1 / ref=4 / deblock=1:-1:-1 / analyse=0x3:0x113 / me=hex / subme=8 / psy=1 / psy_rd=1.00:0.15 / mixed_ref=1 / me_range=16 / chroma_me=1 / trellis=2 / 8x8dct=1 / cqm=0 / deadzone=21,11 / fast_pskip=1 / chroma_qp_offset=-3 / threads=12 / lookahead_threads=2 / sliced_threads=0 / nr=0 / decimate=1 / interlaced=0 / bluray_compat=0 / constrained_intra=0 / bframes=5 / b_pyramid=2 / b_adapt=1 / b_bias=0 / direct=1 / weightb=1 / open_gop=0 / weightp=2 / keyint=250 / keyint_min=23 / scenecut=40 / intra_refresh=0 / rc_lookahead=40 / rc=crf / mbtree=1 / crf=18.0 / qcomp=0.60 / qpmin=0 / qpmax=69 / qpstep=4 / vbv_maxrate=40000 / vbv_bufsize=30000 / crf_max=0.0 / nal_hrd=none / filler=0 / ip_ratio=1.40 / aq=1:1.00 / zones=159130,165934,crf=22
Language : English
Default : Yes
Forced : No


Citar
x264 [info]: frame I:1621  Avg QP:14.23  size:213542
x264 [info]: frame P:36155 Avg QP:17.17  size: 54134
x264 [info]: frame B:128158 Avg QP:18.66  size: 16714
x264 [info]: consecutive B-frames:  6.2%  0.8%  1.4%  3.8%  2.6% 85.2%
x264 [info]: mb I  I16..4: 19.1% 66.2% 14.7%
x264 [info]: mb P  I16..4:  2.4%  8.4%  0.7%  P16..4: 46.5% 20.9% 10.7%  0.0%  0.0%    skip:10.4%
x264 [info]: mb B  I16..4:  0.1%  0.7%  0.1%  B16..8: 41.6%  5.1%  1.0%  direct: 6.4%  skip:45.2%  L0:45.3% L1:46.1% BI: 8.6%
x264 [info]: 8x8 transform intra:72.4% inter:57.0%
x264 [info]: coded y,uvDC,uvAC intra: 79.3% 86.5% 68.7% inter: 22.5% 28.5% 4.6%
x264 [info]: i16 v,h,dc,p: 34% 12% 19% 35%
x264 [info]: i8 v,h,dc,ddl,ddr,vr,hd,vl,hu: 12% 11% 13%  8% 11% 11% 11% 11% 11%
x264 [info]: i4 v,h,dc,ddl,ddr,vr,hd,vl,hu: 12% 12%  7%  9% 13% 13% 12% 10% 12%
x264 [info]: i8c dc,h,v,p: 49% 19% 18% 13%
x264 [info]: Weighted P-Frames: Y:3.5% UV:1.2%
x264 [info]: ref P L0: 50.4%  8.9% 27.7% 11.0%  2.0%  0.0%
x264 [info]: ref B L0: 84.3% 12.9%  2.8%
x264 [info]: ref B L1: 92.8%  7.2%
x264 [info]: kb/s:5138.59

encoded 165934 frames, 16.09 fps, 5138.59 kb/s
任者責