Autor Tema: UsEac3to 1.2.8 (Oct 16, 2017)  (Leído 1440 veces)

0 Usuarios y 1 Visitante están viendo este tema.

tebasuna51

  • Moderador
  • ******
  • Desconectado Desconectado
  • Registrado: 22/02/2010
  • Mensajes: 4.500
  • Valoración: 247
UsEac3to 1.2.8 (Oct 16, 2017)
« Mensaje inicial: 16 de Octubre de 2017, 13:09 »
Nueva versión 1.2.8 para soportar MkvToolNix v17.0.0

Changelog
=========
- v1.2.8 2017-10-16 Soporta MkvToolNix v17.0.0. Nueva MkvExtractGUI.

No funcionará con versiones previas de MkvToolNix por el cambio de sintáxis de mkvextract.exe, antes:

mkvextract {modo} {nombre-archivo} opciones especificaciones-extracción

Con v17.0.0:

mkvextract {nombre-archivo} {modo1} opciones especificaciones-extracción1 modo2 opciones especificaciones-extracción2 …

Con modo: tracks, timestamps_v2, chapters, attachments
Podemos usar una sola ejecución para todos los modos.

------------------------------------------
Se han detectado problemas en la extracción de .h265 con eac3to v3.32, esperemos que madshi lo corrija.



wolf

  • Miembro milenario
  • ******
  • Desconectado Desconectado
  • Registrado: 06/07/2007
  • Mensajes: 1.866
  • Valoración: 67
Re:UsEac3to 1.2.8 (Oct 16, 2017)
« Respuesta #1: 15 de Mayo de 2018, 01:53 »
Hola, tebasuna.

Me sucede lo siguiente:

Tengo un DVD9 volcado en el HDD con todos sus archivos, seis de los cuales son los archivos VOB que pertenecen a la película. Abro UsEac3To y cargo el primer VOB, y clico en "+ Sources". Con lo que se cargan automáticamente el resto de la serie de archivos VOB de la peli. Seguidamente, clico en "MkvExtract/INF" y escojo la pista 2 (que es el primer audio AC3). Luego, clico en "Run" de "ffmpeg Extract" y comienza un brevísimo proceso en CMD que extrae un audio AC3 que dura 00:19:03.29x (que es justo lo que dura el primer archivo VOB). O sea, que sólo extrae un fragmento, el que pertenece al primer "fragmento" VOB...

Citar
D:\PORTABLES\eac3to_x64\UsEac3to>"D:\PORTABLES\eac3to_x64\UsEac3to\ffmpeg.exe" -i "D:\[DVD9 PAL]\VIDEO_TS\VTS_05_1.VOB" -map 0:2 -acodec copy "D:\[DVD9 PAL]\VIDEO_TS\VTS_05_1.VOB_2.ac3"
ffmpeg version N-90810-g153e920892 Copyright (c) 2000-2018 the FFmpeg developers
  built with gcc 7.3.0 (GCC)
  configuration: --enable-gpl --enable-version3 --enable-sdl2 --enable-bzlib --enable-fontconfig --enable-gnutls --enable-iconv --enable-libass --enable-libbluray --enable-libfreetype --enable-libmp3lame --enable-libopencore-amrnb --enable-libopencore-amrwb --enable-libopenjpeg --enable-libopus --enable-libshine --enable-libsnappy --enable-libsoxr --enable-libtheora --enable-libtwolame --enable-libvpx --enable-libwavpack --enable-libwebp --enable-libx264 --enable-libx265 --enable-libxml2 --enable-libzimg --enable-lzma --enable-zlib --enable-gmp --enable-libvidstab --enable-libvorbis --enable-libvo-amrwbenc --enable-libmysofa --enable-libspeex --enable-libxvid --enable-libaom --enable-libmfx --enable-amf --enable-ffnvcodec --enable-cuvid --enable-d3d11va --enable-nvenc --enable-nvdec --enable-dxva2 --enable-avisynth
  libavutil      56. 15.100 / 56. 15.100
  libavcodec     58. 19.100 / 58. 19.100
  libavformat    58. 13.100 / 58. 13.100
  libavdevice    58.  4.100 / 58.  4.100
  libavfilter     7. 19.100 /  7. 19.100
  libswscale      5.  2.100 /  5.  2.100
  libswresample   3.  2.100 /  3.  2.100
  libpostproc    55.  2.100 / 55.  2.100
Input #0, mpeg, from 'D:\[DVD9 PAL]\VIDEO_TS\VTS_05_1.VOB':
  Duration: 00:19:03.32, start: 0.360000, bitrate: 7513 kb/s
    Stream #0:0[0x1bf]: Data: dvd_nav_packet
    Stream #0:1[0x1e0]: Video: mpeg2video (Main), yuv420p(tv, top first), 720x576 [SAR 64:45 DAR 16:9], 25 fps, 25 tbr, 90k tbn, 50 tbc
    Stream #0:2[0x80]: Audio: ac3, 48000 Hz, stereo, fltp, 192 kb/s
    Stream #0:3[0x81]: Audio: ac3, 48000 Hz, stereo, fltp, 192 kb/s
Output #0, ac3, to 'D:\[DVD9 PAL]\VIDEO_TS\VTS_05_1.VOB_2.ac3':
  Metadata:
    encoder         : Lavf58.13.100
    Stream #0:0: Audio: ac3, 48000 Hz, stereo, fltp, 192 kb/s
Stream mapping:
  Stream #0:2 -> #0:0 (copy)
Press [q] to stop, [?] for help
[mpeg @ 0000018b9398a0c0] New subtitle stream 0:4 at pos:14159886 and DTS:16.68s
[mpeg @ 0000018b9398a0c0] New subtitle stream 0:5 at pos:14163982 and DTS:16.68s
size=   26797kB time=00:19:03.29 bitrate= 192.0kbits/s speed=2.42e+003x
video:0kB audio:26797kB subtitle:0kB other streams:0kB global headers:0kB muxing overhead: 0.000000%
End job.
Presione una tecla para continuar . . .

Si lo extraigo por medio de eac3to y " 3: %_3eng.ac3" -> "RUN CL", no hay problema.
« Última modificación: 15 de Mayo de 2018, 03:20 por wolf »

tebasuna51

  • Moderador
  • ******
  • Desconectado Desconectado
  • Registrado: 22/02/2010
  • Mensajes: 4.500
  • Valoración: 247
Re:UsEac3to 1.2.8 (Oct 16, 2017)
« Respuesta #2: 15 de Mayo de 2018, 14:01 »
... extrae un audio AC3 que dura 00:19:03.29...

Citar
D:\PORTABLES\eac3to_x64\UsEac3to>"D:\PORTABLES\eac3to_x64\UsEac3to\ffmpeg.exe" -i "D:\[DVD9 PAL]\VIDEO_TS\VTS_05_1.VOB"  . . .

Si lo extraigo por medio de eac3to y " 3: %_3eng.ac3" -> "RUN CL", no hay problema.

Es lo que cabe esperar, si el input de ffmpeg es un solo VOB el audio de salida es el de un solo VOB.

La utilidad '+Sources' concatena los VOB de una manera que entiende eac3to pero no ffmpeg.
La verdad es que no se si puede haber un método para ello, pero no voy a complicarme la vida, si eac3to no funcionara siempre esta PgcDemux para estos menesteres.

wolf

  • Miembro milenario
  • ******
  • Desconectado Desconectado
  • Registrado: 06/07/2007
  • Mensajes: 1.866
  • Valoración: 67
Re:UsEac3to 1.2.8 (Oct 16, 2017)
« Respuesta #3: 15 de Mayo de 2018, 19:32 »
Es lo que cabe esperar, si el input de ffmpeg es un solo VOB el audio de salida es el de un solo VOB.

La utilidad '+Sources' concatena los VOB de una manera que entiende eac3to pero no ffmpeg.
La verdad es que no se si puede haber un método para ello, pero no voy a complicarme la vida, si eac3to no funcionara siempre esta PgcDemux para estos menesteres.

Vale. Gracias, tebasuna.