Autor Tema: Codificación de 300 con HandBrake  (Leído 5475 veces)

0 Usuarios y 1 Visitante están viendo este tema.

LuchoO

  • Moderador
  • ******
  • Desconectado Desconectado
  • Registrado: 10/02/2004
  • Mensajes: 5.609
  • Valoración: 56
  • Sexo: Masculino
Re:Codificación de 300 con HandBrake
« Respuesta #105: 13 de Julio de 2018, 21:04 »
Citar
Un buen rip microhd 1080p, para una buena película.
Lástima que el audio del full sea tan malillo, para semejante película un DTS-HD MA, o como mínimo, un AC3 640 :-)
Esperando versión "LuchoO"

Si  .. lo olvidaba ..   :arriba:

Spoiler
Unique ID : 193881571904367291921337682440935057387 (0x91DC3B8517266ABAF05A0659287627EB)
Complete name : F:\Utorrent\Ready.Player.One.2018.BDrip.1080p.H264.ESP.Ac3.LAT.Ac3.mkv
Format : Matroska
Format version : Version 4 / Version 2
File size : 8.66 GiB
Duration : 2 h 19 min
Overall bit rate : 8 861 kb/s
Encoded date : UTC 2018-07-07 05:17:51
Writing application : mkvmerge v24.0.0 ('Beyond The Pale') 64-bit
Writing library : libebml v1.3.6 + libmatroska v1.4.9

Video
ID : 1
Format : AVC
Format/Info : Advanced Video Codec
Format profile : High@L4.1
Format settings : CABAC / 4 Ref Frames
Format settings, CABAC : Yes
Format settings, RefFrames : 4 frames
Codec ID : V_MPEG4/ISO/AVC
Duration : 2 h 19 min
Bit rate : 8 091 kb/s
Width : 1 920 pixels
Height : 800 pixels
Display aspect ratio : 2.40:1
Frame rate mode : Constant
Frame rate : 23.976 (24000/1001) FPS
Color space : YUV
Chroma subsampling : 4:2:0
Bit depth : 8 bits
Scan type : Progressive
Bits/(Pixel*Frame) : 0.220
Stream size : 7.91 GiB (91%)
Writing library : x264 core 155 r2893 b00bcaf
Encoding settings : cabac=1 / ref=4 / deblock=1:0:0 / analyse=0x3:0x113 / me=hex / subme=8 / psy=1 / psy_rd=1.00:0.00 / mixed_ref=1 / me_range=16 / chroma_me=1 / trellis=2 / 8x8dct=1 / cqm=0 / deadzone=21,11 / fast_pskip=1 / chroma_qp_offset=-2 / threads=12 / lookahead_threads=2 / sliced_threads=0 / nr=0 / decimate=1 / interlaced=0 / bluray_compat=0 / constrained_intra=0 / bframes=5 / b_pyramid=2 / b_adapt=1 / b_bias=0 / direct=1 / weightb=1 / open_gop=0 / weightp=2 / keyint=250 / keyint_min=23 / scenecut=40 / intra_refresh=0 / rc_lookahead=40 / rc=crf / mbtree=1 / crf=18.0 / qcomp=0.60 / qpmin=0 / qpmax=69 / qpstep=4 / vbv_maxrate=40000 / vbv_bufsize=30000 / crf_max=0.0 / nal_hrd=none / filler=0 / ip_ratio=1.40 / aq=1:1.00 / zones=185940,201357,crf=20
Language : English
Default : Yes
Forced : No



Saludos  :saludo:
 
任者責

fran27

  • Miembro junior
  • **
  • Desconectado Desconectado
  • Registrado: 28/12/2016
  • Mensajes: 87
  • Valoración: 4
Re:Codificación de 300 con HandBrake
« Respuesta #106: 14 de Julio de 2018, 17:53 »
Gracias compañero  :-)

Aquí otros dos, de estas no creo que hagas rip  :-D


PETER RABBIT



General
Complete name               : E:\Peter Rabbit.mkv
Format                      : Matroska
Format version              : Version 4 / Version 2
File size                   : 5.55 GiB
Duration                    : 1 h 34 min
Overall bit rate            : 8 385 kb/s
Encoded date                : UTC 2018-07-14 14:41:54
Writing application         : mkvmerge v22.0.0 ('At The End Of The World') 64-bit
Writing library             : libebml v1.3.5 + libmatroska v1.4.8

Video
ID                          : 1
Format                      : AVC
Format/Info                 : Advanced Video Codec
Format profile              : High@L4.1
Format settings             : CABAC / 5 Ref Frames
Format settings, CABAC      : Yes
Format settings, ReFrames   : 5 frames
Codec ID                    : V_MPEG4/ISO/AVC
Duration                    : 1 h 34 min
Bit rate                    : 6 152 kb/s
Width                       : 1 920 pixels
Height                      : 804 pixels
Display aspect ratio        : 2.40:1
Frame rate mode             : Constant
Frame rate                  : 23.976 (24000/1001) FPS
Color space                 : YUV
Chroma subsampling          : 4:2:0
Bit depth                   : 8 bits
Scan type                   : Progressive
Bits/(Pixel*Frame)          : 0.166
Stream size                 : 4.07 GiB (73%)
Writing library             : x264 core 155 r2901 7d0ff22
Encoding settings           : cabac=1 / ref=5 / deblock=1:-3:-3 / analyse=0x3:0x113 / me=umh / subme=8 / psy=1 / psy_rd=1.00:0.00 / mixed_ref=1 / me_range=16 / chroma_me=1 / trellis=2 / 8x8dct=1 / cqm=0 / deadzone=21,11 / fast_pskip=1 / chroma_qp_offset=-2 / threads=25 / lookahead_threads=4 / sliced_threads=0 / nr=0 / decimate=1 / interlaced=0 / bluray_compat=0 / constrained_intra=0 / bframes=3 / b_pyramid=2 / b_adapt=1 / b_bias=0 / direct=3 / weightb=1 / open_gop=0 / weightp=2 / keyint=240 / keyint_min=24 / scenecut=40 / intra_refresh=0 / rc_lookahead=50 / rc=crf / mbtree=1 / crf=19.0 / qcomp=0.60 / qpmin=0 / qpmax=69 / qpstep=4 / vbv_maxrate=62500 / vbv_bufsize=78125 / crf_max=0.0 / nal_hrd=none / filler=0 / ip_ratio=1.40 / aq=1:1.00
Default                     : Yes
Forced                      : No
Color range                 : Limited
Color primaries             : BT.709
Transfer characteristics    : BT.709
Matrix coefficients         : BT.709

Audio
ID                          : 2
Format                      : DTS
Format/Info                 : Digital Theater Systems
Format profile              : MA / Core
Codec ID                    : A_DTS
Duration                    : 1 h 34 min
Bit rate mode               : Variable / Constant
Bit rate                    : 2 230 kb/s / 1 509 kb/s
Channel(s)                  : 6 channels
Channel positions           : Front: L C R, Side: L R, LFE
Sampling rate               : 48.0 kHz
Frame rate                  : 93.750 FPS (512 SPF)
Bit depth                   : 16 bits
Compression mode            : Lossless / Lossy
Stream size                 : 1.48 GiB (27%)
Default                     : Yes
Forced                      : No



WINCHESTER
LA CASA QUE CONSTRUYERON LOS ESPÍRITUS




General
Complete name               : E:\Winchester La Casa Que Construyeron Los Espíritus.mkv
Format                      : Matroska
Format version              : Version 4 / Version 2
File size                   : 3.25 GiB
Duration                    : 1 h 39 min
Overall bit rate            : 4 689 kb/s
Encoded date                : UTC 2018-07-14 15:44:24
Writing application         : mkvmerge v22.0.0 ('At The End Of The World') 64-bit
Writing library             : libebml v1.3.5 + libmatroska v1.4.8

Video
ID                          : 1
Format                      : AVC
Format/Info                 : Advanced Video Codec
Format profile              : High@L4.1
Format settings             : CABAC / 5 Ref Frames
Format settings, CABAC      : Yes
Format settings, ReFrames   : 5 frames
Codec ID                    : V_MPEG4/ISO/AVC
Duration                    : 1 h 39 min
Bit rate                    : 3 371 kb/s
Width                       : 1 920 pixels
Height                      : 804 pixels
Display aspect ratio        : 2.40:1
Frame rate mode             : Constant
Frame rate                  : 24.000 FPS
Color space                 : YUV
Chroma subsampling          : 4:2:0
Bit depth                   : 8 bits
Scan type                   : Progressive
Bits/(Pixel*Frame)          : 0.091
Stream size                 : 2.34 GiB (72%)
Writing library             : x264 core 155 r2901 7d0ff22
Encoding settings           : cabac=1 / ref=5 / deblock=1:-3:-3 / analyse=0x3:0x113 / me=umh / subme=8 / psy=1 / psy_rd=1.00:0.00 / mixed_ref=1 / me_range=16 / chroma_me=1 / trellis=2 / 8x8dct=1 / cqm=0 / deadzone=21,11 / fast_pskip=1 / chroma_qp_offset=-2 / threads=25 / lookahead_threads=4 / sliced_threads=0 / nr=0 / decimate=1 / interlaced=0 / bluray_compat=0 / constrained_intra=0 / bframes=3 / b_pyramid=2 / b_adapt=1 / b_bias=0 / direct=3 / weightb=1 / open_gop=0 / weightp=2 / keyint=240 / keyint_min=24 / scenecut=40 / intra_refresh=0 / rc_lookahead=50 / rc=crf / mbtree=1 / crf=18.0 / qcomp=0.60 / qpmin=0 / qpmax=69 / qpstep=4 / vbv_maxrate=62500 / vbv_bufsize=78125 / crf_max=0.0 / nal_hrd=none / filler=0 / ip_ratio=1.40 / aq=1:1.00
Default                     : Yes
Forced                      : No
Color range                 : Limited
Color primaries             : BT.709
Transfer characteristics    : BT.709
Matrix coefficients         : BT.709

Audio
ID                          : 2
Format                      : DTS
Format/Info                 : Digital Theater Systems
Format profile              : MA / Core
Codec ID                    : A_DTS
Duration                    : 1 h 39 min
Bit rate mode               : Variable / Constant
Bit rate                    : 1 315 kb/s / 768 kb/s
Channel(s)                  : 6 channels
Channel positions           : Front: L C R, Side: L R, LFE
Sampling rate               : 48.0 kHz
Frame rate                  : 93.750 FPS (512 SPF)
Bit depth                   : 16 bits
Compression mode            : Lossless / Lossy
Stream size                 : 933 MiB (28%)
Default                     : Yes
Forced                      : No

LuchoO

  • Moderador
  • ******
  • Desconectado Desconectado
  • Registrado: 10/02/2004
  • Mensajes: 5.609
  • Valoración: 56
  • Sexo: Masculino
Re:Codificación de 300 con HandBrake
« Respuesta #107: 14 de Julio de 2018, 17:59 »
Tenia una de Winchester ..

Spoiler
Complete name : Winchester.2018.BDrip.H264.1080p.LAT.Ac3.mkv
Format : Matroska
Format version : Version 4 / Version 2
File size : 5.63 GiB
Duration : 1 h 39 min
Overall bit rate : 8 096 kb/s
Encoded date : UTC 2018-04-26 04:47:37
Writing application : mkvmerge v21.0.0 ('Tardigrades Will Inherit The Earth') 64-bit
Writing library : libebml v1.3.5 + libmatroska v1.4.8

Video
ID : 1
Format : AVC
Format/Info : Advanced Video Codec
Format profile : High@L4.1
Format settings : CABAC / 4 Ref Frames
Format settings, CABAC : Yes
Format settings, RefFrames : 4 frames
Codec ID : V_MPEG4/ISO/AVC
Duration : 1 h 39 min
Bit rate : 7 646 kb/s
Width : 1 920 pixels
Height : 800 pixels
Display aspect ratio : 2.40:1
Frame rate mode : Constant
Frame rate : 23.976 (24000/1001) FPS
Color space : YUV
Chroma subsampling : 4:2:0
Bit depth : 8 bits
Scan type : Progressive
Bits/(Pixel*Frame) : 0.208
Stream size : 5.31 GiB (94%)
Writing library : x264 core 155 r2893 b00bcaf
Encoding settings : cabac=1 / ref=4 / deblock=1:0:0 / analyse=0x3:0x113 / me=hex / subme=8 / psy=1 / psy_rd=1.00:0.00 / mixed_ref=1 / me_range=16 / chroma_me=1 / trellis=2 / 8x8dct=1 / cqm=0 / deadzone=21,11 / fast_pskip=1 / chroma_qp_offset=-2 / threads=12 / lookahead_threads=2 / sliced_threads=0 / nr=0 / decimate=1 / interlaced=0 / bluray_compat=0 / constrained_intra=0 / bframes=5 / b_pyramid=2 / b_adapt=1 / b_bias=0 / direct=1 / weightb=1 / open_gop=0 / weightp=2 / keyint=250 / keyint_min=23 / scenecut=40 / intra_refresh=0 / rc_lookahead=40 / rc=crf / mbtree=1 / crf=16.0 / qcomp=0.60 / qpmin=0 / qpmax=69 / qpstep=4 / vbv_maxrate=40000 / vbv_bufsize=30000 / crf_max=0.0 / nal_hrd=none / filler=0 / ip_ratio=1.40 / aq=1:1.00 / zones=130040,143149,crf=20
Language : English
Default : Yes
Forced : No

Audio
ID : 2
Format : AC-3
Format/Info : Audio Coding 3
Codec ID : A_AC3
Duration : 1 h 39 min
Bit rate mode : Constant
Bit rate : 448 kb/s
Channel(s) : 6 channels
Channel positions : Front: L C R, Side: L R, LFE
Sampling rate : 48.0 kHz
Frame rate : 31.250 FPS (1536 SPF)
Bit depth : 16 bits
Compression mode : Lossy
Stream size : 319 MiB (6%)
Language : Spanish
Service kind : Complete Main
Default : Yes
Forced : No

Text
ID : 3
Format : VobSub
Muxing mode : zlib
Codec ID : S_VOBSUB
Codec ID/Info : Picture based subtitle format used on DVDs
Duration : 1 h 29 min
Bit rate : 276 b/s
Count of elements : 32
Stream size : 182 KiB (0%)
Language : Spanish
Default : Yes
Forced : No

Menu
00:00:00.000 : en:Chapter 01
00:04:46.286 : en:Chapter 02
00:10:01.267 : en:Chapter 03
00:14:38.794 : en:Chapter 04
00:21:21.280 : en:Chapter 05
00:27:20.639 : en:Chapter 06
00:35:52.900 : en:Chapter 07
00:41:11.427 : en:Chapter 08
00:50:03.000 : en:Chapter 09
00:58:59.536 : en:Chapter 10
01:06:16.973 : en:Chapter 11
01:11:19.108 : en:Chapter 12
01:16:00.556 : en:Chapter 13
01:21:50.739 : en:Chapter 14
01:27:04.052 : en:Chapter 15
01:30:55.074 : en:Chapter 16
===========================================================
x264 [info]: frame I:1898  Avg QP:11.65  size:210652
x264 [info]: frame P:29558 Avg QP:14.78  size: 73940
x264 [info]: frame B:111693 Avg QP:16.34  size: 27942
x264 [info]: consecutive B-frames:  5.1%  0.8%  1.4%  4.6%  3.7% 84.3%
x264 [info]: mb I  I16..4: 25.6% 43.0% 31.4%
x264 [info]: mb P  I16..4:  8.0% 13.4%  3.7%  P16..4: 33.3% 20.5%  9.0%  0.0%  0.0%    skip:12.0%
x264 [info]: mb B  I16..4:  2.6%  1.9%  0.8%  B16..8: 38.0%  8.6%  1.7%  direct:10.0%  skip:36.3%  L0:46.3% L1:42.0% BI:11.7%
x264 [info]: 8x8 transform intra:45.3% inter:46.5%
x264 [info]: coded y,uvDC,uvAC intra: 80.0% 62.2% 42.8% inter: 30.9% 24.6% 3.6%
x264 [info]: i16 v,h,dc,p: 22% 10% 50% 18%
x264 [info]: i8 v,h,dc,ddl,ddr,vr,hd,vl,hu: 13%  9% 30%  7%  8%  8%  8%  8%  8%
x264 [info]: i4 v,h,dc,ddl,ddr,vr,hd,vl,hu: 18% 12% 32%  6%  7%  7%  6%  6%  7%
x264 [info]: i8c dc,h,v,p: 61% 16% 18%  5%
x264 [info]: Weighted P-Frames: Y:3.3% UV:2.1%
x264 [info]: ref P L0: 51.8%  8.7% 25.1% 12.7%  1.6%  0.0%
x264 [info]: ref B L0: 84.2% 12.7%  3.1%
x264 [info]: ref B L1: 93.2%  6.8%
x264 [info]: kb/s:7645.94

encoded 143149 frames, 14.63 fps, 7645.94 kb/s

La mia es BD americano a 23.976 fps   :saludo:
任者責

fran27

  • Miembro junior
  • **
  • Desconectado Desconectado
  • Registrado: 28/12/2016
  • Mensajes: 87
  • Valoración: 4
Re:Codificación de 300 con HandBrake
« Respuesta #108: 14 de Julio de 2018, 20:34 »
Sabía que iba a quedar pequeña después de las pruebas que hice(como pasó con La llegada y algunas pocas más), pero para microhd 1080p, no quiero bajar de 18 ni subir de 23((El vagón de la muerte fué un caso aparte)  :-D

Un saludo y  :saludo:

fran27

  • Miembro junior
  • **
  • Desconectado Desconectado
  • Registrado: 28/12/2016
  • Mensajes: 87
  • Valoración: 4
Re:Codificación de 300 con HandBrake
« Respuesta #109: 17 de Julio de 2018, 20:41 »
PROYECTO RAMPAGE



General
Complete name               : E:\Proyecto Rampage.mkv
Format                      : Matroska
Format version              : Version 4 / Version 2
File size                   : 4.71 GiB
Duration                    : 1 h 47 min
Overall bit rate            : 6 282 kb/s
Encoded date                : UTC 2018-07-17 13:19:17
Writing application         : mkvmerge v22.0.0 ('At The End Of The World') 64-bit
Writing library             : libebml v1.3.5 + libmatroska v1.4.8

Video
ID                          : 1
Format                      : AVC
Format/Info                 : Advanced Video Codec
Format profile              : High@L4.1
Format settings             : CABAC / 5 Ref Frames
Format settings, CABAC      : Yes
Format settings, ReFrames   : 5 frames
Codec ID                    : V_MPEG4/ISO/AVC
Duration                    : 1 h 47 min
Bit rate                    : 5 832 kb/s
Width                       : 1 920 pixels
Height                      : 800 pixels
Display aspect ratio        : 2.40:1
Frame rate mode             : Constant
Frame rate                  : 23.976 (24000/1001) FPS
Color space                 : YUV
Chroma subsampling          : 4:2:0
Bit depth                   : 8 bits
Scan type                   : Progressive
Bits/(Pixel*Frame)          : 0.158
Stream size                 : 4.37 GiB (93%)
Writing library             : x264 core 155 r2901 7d0ff22
Encoding settings           : cabac=1 / ref=5 / deblock=1:-3:-3 / analyse=0x3:0x113 / me=umh / subme=8 / psy=1 / psy_rd=1.00:0.00 / mixed_ref=1 / me_range=16 / chroma_me=1 / trellis=2 / 8x8dct=1 / cqm=0 / deadzone=21,11 / fast_pskip=1 / chroma_qp_offset=-2 / threads=25 / lookahead_threads=4 / sliced_threads=0 / nr=0 / decimate=1 / interlaced=0 / bluray_compat=0 / constrained_intra=0 / bframes=3 / b_pyramid=2 / b_adapt=1 / b_bias=0 / direct=3 / weightb=1 / open_gop=0 / weightp=2 / keyint=240 / keyint_min=24 / scenecut=40 / intra_refresh=0 / rc_lookahead=50 / rc=crf / mbtree=1 / crf=21.0 / qcomp=0.60 / qpmin=0 / qpmax=69 / qpstep=4 / vbv_maxrate=62500 / vbv_bufsize=78125 / crf_max=0.0 / nal_hrd=none / filler=0 / ip_ratio=1.40 / aq=1:1.00
Default                     : Yes
Forced                      : No
Color range                 : Limited
Color primaries             : BT.709
Transfer characteristics    : BT.709
Matrix coefficients         : BT.709

Audio
ID                          : 2
Format                      : AC-3
Format/Info                 : Audio Coding 3
Codec ID                    : A_AC3
Duration                    : 1 h 47 min
Bit rate mode               : Constant
Bit rate                    : 448 kb/s
Channel(s)                  : 6 channels
Channel positions           : Front: L C R, Side: L R, LFE
Sampling rate               : 48.0 kHz
Frame rate                  : 31.250 FPS (1536 SPF)
Bit depth                   : 16 bits
Compression mode            : Lossy
Stream size                 : 344 MiB (7%)
Service kind                : Complete Main

fran27

  • Miembro junior
  • **
  • Desconectado Desconectado
  • Registrado: 28/12/2016
  • Mensajes: 87
  • Valoración: 4
Re:Codificación de 300 con HandBrake
« Respuesta #110: 08 de Agosto de 2018, 17:46 »
I KILL GIANTS


General
Complete name               : E:\I Kill Giants.mkv
Format                      : Matroska
Format version              : Version 4 / Version 2
File size                   : 3.44 GiB
Duration                    : 1 h 46 min
Overall bit rate            : 4 623 kb/s
Encoded date                : UTC 2018-08-07 19:53:03
Writing application         : mkvmerge v22.0.0 ('At The End Of The World') 64-bit
Writing library             : libebml v1.3.5 + libmatroska v1.4.8

Video
ID                          : 1
Format                      : AVC
Format/Info                 : Advanced Video Codec
Format profile              : High@L4.1
Format settings             : CABAC / 5 Ref Frames
Format settings, CABAC      : Yes
Format settings, ReFrames   : 5 frames
Codec ID                    : V_MPEG4/ISO/AVC
Duration                    : 1 h 46 min
Bit rate                    : 3 991 kb/s
Width                       : 1 920 pixels
Height                      : 804 pixels
Display aspect ratio        : 2.40:1
Frame rate mode             : Constant
Frame rate                  : 23.976 (24000/1001) FPS
Color space                 : YUV
Chroma subsampling          : 4:2:0
Bit depth                   : 8 bits
Scan type                   : Progressive
Bits/(Pixel*Frame)          : 0.108
Stream size                 : 2.97 GiB (86%)
Writing library             : x264 core 155 r2901 7d0ff22
Encoding settings           : cabac=1 / ref=5 / deblock=1:-3:-3 / analyse=0x3:0x113 / me=umh / subme=8 / psy=1 / psy_rd=1.00:0.00 / mixed_ref=1 / me_range=16 / chroma_me=1 / trellis=2 / 8x8dct=1 / cqm=0 / deadzone=21,11 / fast_pskip=1 / chroma_qp_offset=-2 / threads=25 / lookahead_threads=4 / sliced_threads=0 / nr=0 / decimate=1 / interlaced=0 / bluray_compat=0 / constrained_intra=0 / bframes=3 / b_pyramid=2 / b_adapt=1 / b_bias=0 / direct=3 / weightb=1 / open_gop=0 / weightp=2 / keyint=240 / keyint_min=24 / scenecut=40 / intra_refresh=0 / rc_lookahead=50 / rc=crf / mbtree=1 / crf=18.0 / qcomp=0.60 / qpmin=0 / qpmax=69 / qpstep=4 / vbv_maxrate=62500 / vbv_bufsize=78125 / crf_max=0.0 / nal_hrd=none / filler=0 / ip_ratio=1.40 / aq=1:1.00
Default                     : Yes
Forced                      : No
Color range                 : Limited
Color primaries             : BT.709
Transfer characteristics    : BT.709
Matrix coefficients         : BT.709

Audio
ID                          : 2
Format                      : AC-3
Format/Info                 : Audio Coding 3
Codec ID                    : A_AC3
Duration                    : 1 h 46 min
Bit rate mode               : Constant
Bit rate                    : 640 kb/s
Channel(s)                  : 6 channels
Channel positions           : Front: L C R, Side: L R, LFE
Sampling rate               : 48.0 kHz
Frame rate                  : 31.250 FPS (1536 SPF)
Bit depth                   : 16 bits
Compression mode            : Lossy
Stream size                 : 488 MiB (14%)
Service kind                : Complete Main
Default                     : Yes
Forced                      : No

wolf

  • Miembro milenario
  • ******
  • Desconectado Desconectado
  • Registrado: 06/07/2007
  • Mensajes: 1.878
  • Valoración: 69
Re:Codificación de 300 con HandBrake
« Respuesta #111: 08 de Agosto de 2018, 20:43 »
Muy compresible esta peli, por lo que veo. Ha quedado muy buen tamaño para ese CRF, ¿no?

Qué casualidad, he visto la peli esta madrugada.

Felices vacaciones.
« Última modificación: 09 de Agosto de 2018, 03:15 por wolf »

fran27

  • Miembro junior
  • **
  • Desconectado Desconectado
  • Registrado: 28/12/2016
  • Mensajes: 87
  • Valoración: 4
Re:Codificación de 300 con HandBrake
« Respuesta #112: 09 de Agosto de 2018, 17:34 »
Muy compresible esta peli, por lo que veo. Ha quedado muy buen tamaño para ese CRF, ¿no?
Es una película con una calidad de imagen muy limpia y sin grano, con muchos momentos de poca luz, de ahí que haya arrojado tan poco bitrate.

Qué casualidad, he visto la peli esta madrugada.
Yo la acabo de ver y no ha estado mal, la he votado con un 6 en Filma  :-)

Felices vacaciones.
Eso para quien esté de vacaciones ajajajja

Un saludo y que disfrutes de tus vacaciones  :si: