Autor Tema: Codificación de 300 con HandBrake  (Leído 4511 veces)

0 Usuarios y 1 Visitante están viendo este tema.

tebasuna51

  • Moderador
  • ******
  • Desconectado Desconectado
  • Registrado: 22/02/2010
  • Mensajes: 4.461
  • Valoración: 242
Re:Codificación de 300 con HandBrake
« Respuesta #75: 12 de Enero de 2018, 09:29 »
300 ha pasado a segunda posición como película con más grano fílmico  :-D

Menos mal que no me interesa para nada esta peli.

fran27

  • Miembro junior
  • **
  • Desconectado Desconectado
  • Registrado: 28/12/2016
  • Mensajes: 67
  • Valoración: 3
Re:Codificación de 300 con HandBrake
« Respuesta #76: 12 de Enero de 2018, 09:55 »
300 ha pasado a segunda posición como película con más grano fílmico  :-D

Menos mal que no me interesa para nada esta peli.
La he visto hace tiempo y recuerdo que estaba entretenida, eso sí, es bastante gore  :macabro:

Y creo que le tocará hoy verla de nuevo  :-)

fran27

  • Miembro junior
  • **
  • Desconectado Desconectado
  • Registrado: 28/12/2016
  • Mensajes: 67
  • Valoración: 3
Re:Codificación de 300 con HandBrake
« Respuesta #77: 13 de Enero de 2018, 18:37 »
Para esta entretenida película he utilizado el crf 18 de tebasuna  :-D
Antes la codifiqué con un crf 19, que arrojaba 4765 kbps de bitrate de vídeo, pero he querido darle más calidad a esta película,
y como además el audio ocupa poco, decidí bajarlo a 18, y ha quedado cojonuda  :si:



IT


General
Complete name               : D:\It.mkv
Format                      : Matroska
Format version              : Version 4 / Version 2
File size                   : 6.07 GiB
Duration                    : 2 h 14 min
Overall bit rate            : 6 454 kb/s
Encoded date                : UTC 2018-01-13 12:50:58
Writing application         : mkvmerge v18.0.0 ('Apricity') 64-bit
Writing library             : libebml v1.3.5 + libmatroska v1.4.8

Video
ID                          : 1
Format                      : AVC
Format/Info                 : Advanced Video Codec
Format profile              : High@L4.1
Format settings             : CABAC / 4 Ref Frames
Format settings, CABAC      : Yes
Format settings, ReFrames   : 4 frames
Codec ID                    : V_MPEG4/ISO/AVC
Duration                    : 2 h 14 min
Bit rate                    : 6 004 kb/s
Width                       : 1 920 pixels
Height                      : 800 pixels
Display aspect ratio        : 2.40:1
Frame rate mode             : Constant
Frame rate                  : 23.976 (24000/1001) FPS
Color space                 : YUV
Chroma subsampling          : 4:2:0
Bit depth                   : 8 bits
Scan type                   : Progressive
Bits/(Pixel*Frame)          : 0.163
Stream size                 : 5.65 GiB (93%)
Writing library             : x264 core 148 r2708 86b7198
Encoding settings           : cabac=1 / ref=3 / deblock=1:-3:-3 / analyse=0x3:0x113 / me=hex / subme=7 / psy=1 / psy_rd=1.00:0.00 / mixed_ref=1 / me_range=16 / chroma_me=1 / trellis=2 / 8x8dct=1 / cqm=0 / deadzone=21,11 / fast_pskip=1 / chroma_qp_offset=-2 / threads=12 / lookahead_threads=2 / sliced_threads=0 / nr=0 / decimate=1 / interlaced=0 / bluray_compat=0 / constrained_intra=0 / bframes=3 / b_pyramid=2 / b_adapt=1 / b_bias=0 / direct=1 / weightb=1 / open_gop=0 / weightp=2 / keyint=240 / keyint_min=24 / scenecut=40 / intra_refresh=0 / rc_lookahead=40 / rc=crf / mbtree=1 / crf=18.0 / qcomp=0.60 / qpmin=0 / qpmax=69 / qpstep=4 / vbv_maxrate=62500 / vbv_bufsize=78125 / crf_max=0.0 / nal_hrd=none / filler=0 / ip_ratio=1.40 / aq=1:1.00
Default                     : Yes
Forced                      : No
Color range                 : Limited
Color primaries             : BT.709
Transfer characteristics    : BT.709
Matrix coefficients         : BT.709

Audio
ID                          : 2
Format                      : AC-3
Format/Info                 : Audio Coding 3
Codec ID                    : A_AC3
Duration                    : 2 h 14 min
Bit rate mode               : Constant
Bit rate                    : 448 kb/s
Channel(s)                  : 6 channels
Channel positions           : Front: L C R, Side: L R, LFE
Sampling rate               : 48.0 kHz
Frame rate                  : 31.250 FPS (1536 SPF)
Bit depth                   : 16 bits
Compression mode            : Lossy
Stream size                 : 432 MiB (7%)
Service kind                : Complete Main
Default                     : Yes
Forced                      : No

fran27

  • Miembro junior
  • **
  • Desconectado Desconectado
  • Registrado: 28/12/2016
  • Mensajes: 67
  • Valoración: 3
Re:Codificación de 300 con HandBrake
« Respuesta #78: 13 de Enero de 2018, 18:42 »
Y he aquí otra película(esta vez de animación) con "poco" grano fílmico  :ojotes:



GANTZ O



General
Complete name               : D:\Gantz O\Gantz O.mkv
Format                      : Matroska
Format version              : Version 4 / Version 2
File size                   : 6.60 GiB
Duration                    : 1 h 35 min
Overall bit rate            : 9 891 kb/s
Encoded date                : UTC 2018-01-13 17:25:55
Writing application         : mkvmerge v18.0.0 ('Apricity') 64-bit
Writing library             : libebml v1.3.5 + libmatroska v1.4.8

Video
ID                          : 1
Format                      : AVC
Format/Info                 : Advanced Video Codec
Format profile              : High@L4.1
Format settings             : CABAC / 4 Ref Frames
Format settings, CABAC      : Yes
Format settings, ReFrames   : 4 frames
Codec ID                    : V_MPEG4/ISO/AVC
Duration                    : 1 h 35 min
Bit rate                    : 9 473 kb/s
Width                       : 1 920 pixels
Height                      : 1 036 pixels
Display aspect ratio        : 1.85:1
Frame rate mode             : Constant
Frame rate                  : 23.976 (24000/1001) FPS
Color space                 : YUV
Chroma subsampling          : 4:2:0
Bit depth                   : 8 bits
Scan type                   : Progressive
Bits/(Pixel*Frame)          : 0.199
Stream size                 : 6.30 GiB (95%)
Writing library             : x264 core 148 r2708 86b7198
Encoding settings           : cabac=1 / ref=3 / deblock=1:-3:-3 / analyse=0x3:0x113 / me=hex / subme=7 / psy=1 / psy_rd=1.00:0.00 / mixed_ref=1 / me_range=16 / chroma_me=1 / trellis=2 / 8x8dct=1 / cqm=0 / deadzone=21,11 / fast_pskip=1 / chroma_qp_offset=-2 / threads=12 / lookahead_threads=2 / sliced_threads=0 / nr=0 / decimate=1 / interlaced=0 / bluray_compat=0 / constrained_intra=0 / bframes=3 / b_pyramid=2 / b_adapt=1 / b_bias=0 / direct=1 / weightb=1 / open_gop=0 / weightp=2 / keyint=240 / keyint_min=24 / scenecut=40 / intra_refresh=0 / rc_lookahead=40 / rc=crf / mbtree=1 / crf=23.0 / qcomp=0.60 / qpmin=0 / qpmax=69 / qpstep=4 / vbv_maxrate=62500 / vbv_bufsize=78125 / crf_max=0.0 / nal_hrd=none / filler=0 / ip_ratio=1.40 / aq=1:1.00
Default                     : Yes
Forced                      : No
Color range                 : Limited
Color primaries             : BT.709
Transfer characteristics    : BT.709
Matrix coefficients         : BT.709

Audio
ID                          : 2
Format                      : AC-3
Format/Info                 : Audio Coding 3
Codec ID                    : A_AC3
Duration                    : 1 h 35 min
Bit rate mode               : Constant
Bit rate                    : 448 kb/s
Channel(s)                  : 6 channels
Channel positions           : Front: L C R, Side: L R, LFE
Sampling rate               : 48.0 kHz
Frame rate                  : 31.250 FPS (1536 SPF)
Bit depth                   : 16 bits
Compression mode            : Lossy
Stream size                 : 306 MiB (5%)
Language                    : Spanish
Service kind                : Complete Main
Default                     : Yes
Forced                      : No

fran27

  • Miembro junior
  • **
  • Desconectado Desconectado
  • Registrado: 28/12/2016
  • Mensajes: 67
  • Valoración: 3
Re:Codificación de 300 con HandBrake
« Respuesta #79: 17 de Enero de 2018, 18:38 »
He vuelto a codificar Gantz O debido a la cantidad de grano que tiene, tanto que hasta molesta al ver la película, y como es casi toda la película de noche...  :stress:

Utiliizé los parámetros de siempre, pero además, para suavizar el dichoso grano, he utilizado el filtro Denoise NLMeans, después de probrarlo en cada uno de sus presets
(Ultralight y Light apenas hicieron nada, y apenas noté la diferencia entre Medium y Strong)  lo he puesto en Medium y Film.

El crf lo he bajado a 18 y ha obtenido un poco más de bitrate de vídeo que el crf 23 sin el filtro Denoise.

Esta noche la veré de nuevo y comprobaré que haya quedado bien  :si:



GANTZ O



General
Complete name               : D:\Gantz O (1).mkv
Format                      : Matroska
Format version              : Version 4 / Version 2
File size                   : 6.98 GiB
Duration                    : 1 h 35 min
Overall bit rate            : 10.5 Mb/s
Encoded date                : UTC 2018-01-17 17:21:39
Writing application         : mkvmerge v18.0.0 ('Apricity') 64-bit
Writing library             : libebml v1.3.5 + libmatroska v1.4.8

Video
ID                          : 1
Format                      : AVC
Format/Info                 : Advanced Video Codec
Format profile              : High@L4.1
Format settings             : CABAC / 4 Ref Frames
Format settings, CABAC      : Yes
Format settings, ReFrames   : 4 frames
Codec ID                    : V_MPEG4/ISO/AVC
Duration                    : 1 h 35 min
Bit rate                    : 10.0 Mb/s
Width                       : 1 920 pixels
Height                      : 1 036 pixels
Display aspect ratio        : 1.85:1
Frame rate mode             : Constant
Frame rate                  : 23.976 (24000/1001) FPS
Color space                 : YUV
Chroma subsampling          : 4:2:0
Bit depth                   : 8 bits
Scan type                   : Progressive
Bits/(Pixel*Frame)          : 0.211
Stream size                 : 6.68 GiB (96%)
Writing library             : x264 core 148 r2708 86b7198
Encoding settings           : cabac=1 / ref=3 / deblock=1:-3:-3 / analyse=0x3:0x113 / me=hex / subme=7 / psy=1 / psy_rd=1.00:0.00 / mixed_ref=1 / me_range=16 / chroma_me=1 / trellis=2 / 8x8dct=1 / cqm=0 / deadzone=21,11 / fast_pskip=1 / chroma_qp_offset=-2 / threads=12 / lookahead_threads=2 / sliced_threads=0 / nr=0 / decimate=1 / interlaced=0 / bluray_compat=0 / constrained_intra=0 / bframes=3 / b_pyramid=2 / b_adapt=1 / b_bias=0 / direct=1 / weightb=1 / open_gop=0 / weightp=2 / keyint=240 / keyint_min=24 / scenecut=40 / intra_refresh=0 / rc_lookahead=40 / rc=crf / mbtree=1 / crf=18.0 / qcomp=0.60 / qpmin=0 / qpmax=69 / qpstep=4 / vbv_maxrate=62500 / vbv_bufsize=78125 / crf_max=0.0 / nal_hrd=none / filler=0 / ip_ratio=1.40 / aq=1:1.00
Default                     : Yes
Forced                      : No
Color range                 : Limited
Color primaries             : BT.709
Transfer characteristics    : BT.709
Matrix coefficients         : BT.709

Audio
ID                          : 2
Format                      : AC-3
Format/Info                 : Audio Coding 3
Codec ID                    : A_AC3
Duration                    : 1 h 35 min
Bit rate mode               : Constant
Bit rate                    : 448 kb/s
Channel(s)                  : 6 channels
Channel positions           : Front: L C R, Side: L R, LFE
Sampling rate               : 48.0 kHz
Frame rate                  : 31.250 FPS (1536 SPF)
Bit depth                   : 16 bits
Compression mode            : Lossy
Stream size                 : 306 MiB (4%)
Language                    : Spanish
Service kind                : Complete Main
Default                     : Yes
Forced                      : No
« Última modificación: 17 de Enero de 2018, 23:34 por fran27 »

fran27

  • Miembro junior
  • **
  • Desconectado Desconectado
  • Registrado: 28/12/2016
  • Mensajes: 67
  • Valoración: 3
Re:Codificación de 300 con HandBrake
« Respuesta #80: 19 de Enero de 2018, 21:24 »
WATCHMEN (THE ULTIMATE CUT)



General
Complete name               : D:\Watchmen\Watchmen.mkv
Format                      : Matroska
Format version              : Version 4 / Version 2
File size                   : 9.54 GiB
Duration                    : 3 h 35 min
Overall bit rate            : 6 340 kb/s
Encoded date                : UTC 2018-01-19 16:52:51
Writing application         : mkvmerge v18.0.0 ('Apricity') 64-bit
Writing library             : libebml v1.3.5 + libmatroska v1.4.8

Video
ID                          : 1
Format                      : AVC
Format/Info                 : Advanced Video Codec
Format profile              : High@L4.1
Format settings             : CABAC / 4 Ref Frames
Format settings, CABAC      : Yes
Format settings, ReFrames   : 4 frames
Codec ID                    : V_MPEG4/ISO/AVC
Duration                    : 3 h 35 min
Bit rate                    : 5 699 kb/s
Width                       : 1 920 pixels
Height                      : 800 pixels
Display aspect ratio        : 2.40:1
Frame rate mode             : Constant
Frame rate                  : 23.976 (24000/1001) FPS
Color space                 : YUV
Chroma subsampling          : 4:2:0
Bit depth                   : 8 bits
Scan type                   : Progressive
Bits/(Pixel*Frame)          : 0.155
Stream size                 : 8.58 GiB (90%)
Writing library             : x264 core 148 r2708 86b7198
Encoding settings           : cabac=1 / ref=3 / deblock=1:-3:-3 / analyse=0x3:0x113 / me=hex / subme=7 / psy=1 / psy_rd=1.00:0.00 / mixed_ref=1 / me_range=16 / chroma_me=1 / trellis=2 / 8x8dct=1 / cqm=0 / deadzone=21,11 / fast_pskip=1 / chroma_qp_offset=-2 / threads=12 / lookahead_threads=2 / sliced_threads=0 / nr=0 / decimate=1 / interlaced=0 / bluray_compat=0 / constrained_intra=0 / bframes=3 / b_pyramid=2 / b_adapt=1 / b_bias=0 / direct=1 / weightb=1 / open_gop=0 / weightp=2 / keyint=240 / keyint_min=24 / scenecut=40 / intra_refresh=0 / rc_lookahead=40 / rc=crf / mbtree=1 / crf=20.0 / qcomp=0.60 / qpmin=0 / qpmax=69 / qpstep=4 / vbv_maxrate=62500 / vbv_bufsize=78125 / crf_max=0.0 / nal_hrd=none / filler=0 / ip_ratio=1.40 / aq=1:1.00
Default                     : Yes
Forced                      : No
Color range                 : Limited
Color primaries             : BT.709
Transfer characteristics    : BT.709
Matrix coefficients         : BT.709

Audio
ID                          : 2
Format                      : AC-3
Format/Info                 : Audio Coding 3
Codec ID                    : A_AC3
Duration                    : 3 h 35 min
Bit rate mode               : Constant
Bit rate                    : 640 kb/s
Channel(s)                  : 6 channels
Channel positions           : Front: L C R, Side: L R, LFE
Sampling rate               : 48.0 kHz
Frame rate                  : 31.250 FPS (1536 SPF)
Bit depth                   : 16 bits
Compression mode            : Lossy
Stream size                 : 986 MiB (10%)
Language                    : Spanish
Service kind                : Complete Main
Default                     : Yes
Forced                      : No

fran27

  • Miembro junior
  • **
  • Desconectado Desconectado
  • Registrado: 28/12/2016
  • Mensajes: 67
  • Valoración: 3
Re:Codificación de 300 con HandBrake
« Respuesta #81: 25 de Febrero de 2018, 14:01 »
Un buen rip para una buena película  :si:



COCO



General
Complete name               : E:\Coco (1).mkv
Format                      : Matroska
Format version              : Version 4 / Version 2
File size                   : 5.30 GiB
Duration                    : 1 h 45 min
Overall bit rate            : 7 229 kb/s
Encoded date                : UTC 2018-02-25 12:55:30
Writing application         : mkvmerge v20.0.0 ('I Am The Sun') 64-bit
Writing library             : libebml v1.3.5 + libmatroska v1.4.8

Video
ID                          : 1
Format                      : AVC
Format/Info                 : Advanced Video Codec
Format profile              : High@L4.1
Format settings             : CABAC / 5 Ref Frames
Format settings, CABAC      : Yes
Format settings, ReFrames   : 5 frames
Codec ID                    : V_MPEG4/ISO/AVC
Duration                    : 1 h 45 min
Bit rate                    : 6 587 kb/s
Width                       : 1 920 pixels
Height                      : 804 pixels
Display aspect ratio        : 2.40:1
Frame rate mode             : Constant
Frame rate                  : 23.976 (24000/1001) FPS
Color space                 : YUV
Chroma subsampling          : 4:2:0
Bit depth                   : 8 bits
Scan type                   : Progressive
Bits/(Pixel*Frame)          : 0.178
Stream size                 : 4.83 GiB (91%)
Writing library             : x264 core 148 r2708 86b7198
Encoding settings           : cabac=1 / ref=5 / deblock=1:-3:-3 / analyse=0x3:0x113 / me=umh / subme=8 / psy=1 / psy_rd=1.00:0.00 / mixed_ref=1 / me_range=16 / chroma_me=1 / trellis=2 / 8x8dct=1 / cqm=0 / deadzone=21,11 / fast_pskip=1 / chroma_qp_offset=-2 / threads=25 / lookahead_threads=4 / sliced_threads=0 / nr=0 / decimate=1 / interlaced=0 / bluray_compat=0 / constrained_intra=0 / bframes=3 / b_pyramid=2 / b_adapt=2 / b_bias=0 / direct=3 / weightb=1 / open_gop=0 / weightp=2 / keyint=240 / keyint_min=24 / scenecut=40 / intra_refresh=0 / rc_lookahead=50 / rc=crf / mbtree=1 / crf=18.0 / qcomp=0.60 / qpmin=0 / qpmax=69 / qpstep=4 / vbv_maxrate=62500 / vbv_bufsize=78125 / crf_max=0.0 / nal_hrd=none / filler=0 / ip_ratio=1.40 / aq=1:1.00
Default                     : Yes
Forced                      : No
Color range                 : Limited
Color primaries             : BT.709
Transfer characteristics    : BT.709
Matrix coefficients         : BT.709

Audio
ID                          : 2
Format                      : AC-3
Format/Info                 : Audio Coding 3
Codec ID                    : A_AC3
Duration                    : 1 h 45 min
Bit rate mode               : Constant
Bit rate                    : 640 kb/s
Channel(s)                  : 6 channels
Channel positions           : Front: L C R, Side: L R, LFE
Sampling rate               : 48.0 kHz
Frame rate                  : 31.250 FPS (1536 SPF)
Bit depth                   : 16 bits
Compression mode            : Lossy
Stream size                 : 481 MiB (9%)
Language                    : Spanish
Service kind                : Complete Main
Default                     : Yes
Forced                      : No

fran27

  • Miembro junior
  • **
  • Desconectado Desconectado
  • Registrado: 28/12/2016
  • Mensajes: 67
  • Valoración: 3
Re:Codificación de 300 con HandBrake
« Respuesta #82: 11 de Marzo de 2018, 13:58 »
LIGA DE LA JUSTICIA



General
Format                      : Matroska
Format version              : Version 4 / Version 2
File size                   : 6.56 GiB
Duration                    : 2 h 0 min
Overall bit rate            : 7 828 kb/s
Encoded date                : UTC 2018-03-09 19:18:29
Writing application         : mkvmerge v20.0.0 ('I Am The Sun') 64-bit
Writing library             : libebml v1.3.5 + libmatroska v1.4.8

Video
ID                          : 1
Format                      : AVC
Format/Info                 : Advanced Video Codec
Format profile              : High@L4.1
Format settings             : CABAC / 4 Ref Frames
Format settings, CABAC      : Yes
Format settings, ReFrames   : 4 frames
Codec ID                    : V_MPEG4/ISO/AVC
Duration                    : 2 h 0 min
Bit rate                    : 7 378 kb/s
Width                       : 1 920 pixels
Height                      : 1 080 pixels
Display aspect ratio        : 16:9
Frame rate mode             : Constant
Frame rate                  : 23.976 (24000/1001) FPS
Color space                 : YUV
Chroma subsampling          : 4:2:0
Bit depth                   : 8 bits
Scan type                   : Progressive
Bits/(Pixel*Frame)          : 0.148
Stream size                 : 6.19 GiB (94%)
Writing library             : x264 core 148 r2708 86b7198
Encoding settings           : cabac=1 / ref=4 / deblock=1:-3:-3 / analyse=0x3:0x113 / me=umh / subme=8 / psy=1 / psy_rd=1.00:0.00 / mixed_ref=1 / me_range=16 / chroma_me=1 / trellis=2 / 8x8dct=1 / cqm=0 / deadzone=21,11 / fast_pskip=1 / chroma_qp_offset=-2 / threads=34 / lookahead_threads=5 / sliced_threads=0 / nr=0 / decimate=1 / interlaced=0 / bluray_compat=0 / constrained_intra=0 / bframes=3 / b_pyramid=2 / b_adapt=2 / b_bias=0 / direct=3 / weightb=1 / open_gop=0 / weightp=2 / keyint=240 / keyint_min=24 / scenecut=40 / intra_refresh=0 / rc_lookahead=50 / rc=crf / mbtree=1 / crf=23.0 / qcomp=0.60 / qpmin=0 / qpmax=69 / qpstep=4 / vbv_maxrate=62500 / vbv_bufsize=78125 / crf_max=0.0 / nal_hrd=none / filler=0 / ip_ratio=1.40 / aq=1:1.00
Default                     : Yes
Forced                      : No
Color range                 : Limited
Color primaries             : BT.709
Transfer characteristics    : BT.709
Matrix coefficients         : BT.709

Audio
ID                          : 2
Format                      : AC-3
Format/Info                 : Audio Coding 3
Codec ID                    : A_AC3
Duration                    : 2 h 0 min
Bit rate mode               : Constant
Bit rate                    : 448 kb/s
Channel(s)                  : 6 channels
Channel positions           : Front: L C R, Side: L R, LFE
Sampling rate               : 48.0 kHz
Frame rate                  : 31.250 FPS (1536 SPF)
Bit depth                   : 16 bits
Compression mode            : Lossy
Stream size                 : 385 MiB (6%)
Language                    : Spanish
Service kind                : Complete Main
Default                     : Yes
Forced                      : No

fran27

  • Miembro junior
  • **
  • Desconectado Desconectado
  • Registrado: 28/12/2016
  • Mensajes: 67
  • Valoración: 3
Re:Codificación de 300 con HandBrake
« Respuesta #83: 07 de Abril de 2018, 16:06 »
EL GRAN SHOWMAN



General
Complete name               : E:\El Gran Showman.mkv
Format                      : Matroska
Format version              : Version 4 / Version 2
File size                   : 4.03 GiB
Duration                    : 1 h 44 min
Overall bit rate            : 5 509 kb/s
Encoded date                : UTC 2018-04-07 14:03:07
Writing application         : mkvmerge v22.0.0 ('At The End Of The World') 64-bit
Writing library             : libebml v1.3.5 + libmatroska v1.4.8

Video

ID                          : 1
Format                      : AVC
Format/Info                 : Advanced Video Codec
Format profile              : High@L4.1
Format settings             : CABAC / 5 Ref Frames
Format settings, CABAC      : Yes
Format settings, ReFrames   : 5 frames
Codec ID                    : V_MPEG4/ISO/AVC
Duration                    : 1 h 44 min
Bit rate                    : 4 739 kb/s
Width                       : 1 920 pixels
Height                      : 800 pixels
Display aspect ratio        : 2.40:1
Frame rate mode             : Constant
Frame rate                  : 23.976 (24000/1001) FPS
Color space                 : YUV
Chroma subsampling          : 4:2:0
Bit depth                   : 8 bits
Scan type                   : Progressive
Bits/(Pixel*Frame)          : 0.129
Stream size                 : 3.47 GiB (86%)
Writing library             : x264 core 148 r2708 86b7198
Encoding settings           : cabac=1 / ref=5 / deblock=1:-3:-3 / analyse=0x3:0x113 / me=umh / subme=8 / psy=1 / psy_rd=1.00:0.00 / mixed_ref=1 / me_range=16 / chroma_me=1 / trellis=2 / 8x8dct=1 / cqm=0 / deadzone=21,11 / fast_pskip=1 / chroma_qp_offset=-2 / threads=25 / lookahead_threads=4 / sliced_threads=0 / nr=0 / decimate=1 / interlaced=0 / bluray_compat=0 / constrained_intra=0 / bframes=3 / b_pyramid=2 / b_adapt=2 / b_bias=0 / direct=3 / weightb=1 / open_gop=0 / weightp=2 / keyint=240 / keyint_min=24 / scenecut=40 / intra_refresh=0 / rc_lookahead=50 / rc=crf / mbtree=1 / crf=18.0 / qcomp=0.60 / qpmin=0 / qpmax=69 / qpstep=4 / vbv_maxrate=62500 / vbv_bufsize=78125 / crf_max=0.0 / nal_hrd=none / filler=0 / ip_ratio=1.40 / aq=1:1.00
Default                     : Yes
Forced                      : No
Color range                 : Limited
Color primaries             : BT.709
Transfer characteristics    : BT.709
Matrix coefficients         : BT.709

Audio
ID                          : 2
Format                      : DTS
Format/Info                 : Digital Theater Systems
Codec ID                    : A_DTS
Duration                    : 1 h 44 min
Bit rate mode               : Constant
Bit rate                    : 768 kb/s
Channel(s)                  : 6 channels
Channel positions           : Front: L C R, Side: L R, LFE
Sampling rate               : 48.0 kHz
Frame rate                  : 93.750 FPS (512 SPF)
Bit depth                   : 24 bits
Compression mode            : Lossy
Stream size                 : 576 MiB (14%)
Language                    : Spanish
Default                     : Yes
Forced                      : No

fran27

  • Miembro junior
  • **
  • Desconectado Desconectado
  • Registrado: 28/12/2016
  • Mensajes: 67
  • Valoración: 3
Re:Codificación de 300 con HandBrake
« Respuesta #84: 14 de Mayo de 2018, 15:26 »
GORRIÓN ROJO



General

Complete name               : E:\Gorrión Rojo (1).mkv
Format                      : Matroska
Format version              : Version 4 / Version 2
File size                   : 4.81 GiB
Duration                    : 2 h 20 min
Overall bit rate            : 4 908 kb/s
Encoded date                : UTC 2018-05-14 13:21:35
Writing application         : mkvmerge v22.0.0 ('At The End Of The World') 64-bit
Writing library             : libebml v1.3.5 + libmatroska v1.4.8

Video
ID                          : 1
Format                      : AVC
Format/Info                 : Advanced Video Codec
Format profile              : High@L4.1
Format settings             : CABAC / 5 Ref Frames
Format settings, CABAC      : Yes
Format settings, ReFrames   : 5 frames
Codec ID                    : V_MPEG4/ISO/AVC
Duration                    : 2 h 20 min
Bit rate                    : 4 138 kb/s
Width                       : 1 920 pixels
Height                      : 800 pixels
Display aspect ratio        : 2.40:1
Frame rate mode             : Constant
Frame rate                  : 23.976 (24000/1001) FPS
Color space                 : YUV
Chroma subsampling          : 4:2:0
Bit depth                   : 8 bits
Scan type                   : Progressive
Bits/(Pixel*Frame)          : 0.112
Stream size                 : 4.05 GiB (84%)
Writing library             : x264 core 155 r2893 b00bcaf
Encoding settings           : cabac=1 / ref=5 / deblock=1:-3:-3 / analyse=0x3:0x113 / me=hex / subme=8 / psy=1 / psy_rd=1.00:0.00 / mixed_ref=1 / me_range=16 / chroma_me=1 / trellis=2 / 8x8dct=1 / cqm=0 / deadzone=21,11 / fast_pskip=1 / chroma_qp_offset=-2 / threads=25 / lookahead_threads=4 / sliced_threads=0 / nr=0 / decimate=1 / interlaced=0 / bluray_compat=0 / constrained_intra=0 / bframes=3 / b_pyramid=2 / b_adapt=1 / b_bias=0 / direct=3 / weightb=1 / open_gop=0 / weightp=2 / keyint=240 / keyint_min=24 / scenecut=40 / intra_refresh=0 / rc_lookahead=50 / rc=crf / mbtree=1 / crf=18.0 / qcomp=0.60 / qpmin=0 / qpmax=69 / qpstep=4 / vbv_maxrate=62500 / vbv_bufsize=78125 / crf_max=0.0 / nal_hrd=none / filler=0 / ip_ratio=1.40 / aq=1:1.00
Default                     : Yes
Forced                      : No
Color range                 : Limited
Color primaries             : BT.709
Transfer characteristics    : BT.709
Matrix coefficients         : BT.709

Audio
ID                          : 2
Format                      : DTS
Format/Info                 : Digital Theater Systems
Codec ID                    : A_DTS
Duration                    : 2 h 20 min
Bit rate mode               : Constant
Bit rate                    : 768 kb/s
Channel(s)                  : 6 channels
Channel positions           : Front: L C R, Side: L R, LFE
Sampling rate               : 48.0 kHz
Frame rate                  : 93.750 FPS (512 SPF)
Bit depth                   : 24 bits
Compression mode            : Lossy
Stream size                 : 770 MiB (16%)
Language                    : Spanish
Default                     : Yes
Forced                      : No

LuchoO

  • Moderador
  • ******
  • Desconectado Desconectado
  • Registrado: 10/02/2004
  • Mensajes: 5.564
  • Valoración: 53
  • Sexo: Masculino
Re:Codificación de 300 con HandBrake
« Respuesta #85: 14 de Mayo de 2018, 17:37 »
 :arriba:

Me gusto esta pelicula ...

Mi MediaInfo:

Spoiler
Video
ID : 1
Format : AVC
Format/Info : Advanced Video Codec
Format profile : High@L4.1
Format settings : CABAC / 4 Ref Frames
Format settings, CABAC : Yes
Format settings, RefFrames : 4 frames
Codec ID : V_MPEG4/ISO/AVC
Duration : 2 h 20 min
Bit rate : 5 047 kb/s
Width : 1 920 pixels
Height : 800 pixels
Display aspect ratio : 2.40:1
Frame rate mode : Constant
Frame rate : 23.976 (24000/1001) FPS
Color space : YUV
Chroma subsampling : 4:2:0
Bit depth : 8 bits
Scan type : Progressive
Bits/(Pixel*Frame) : 0.137
Stream size : 4.94 GiB (85%)
Writing library : x264 core 155 r2893 b00bcaf
Encoding settings : cabac=1 / ref=4 / deblock=1:0:0 / analyse=0x3:0x113 / me=hex / subme=8 / psy=1 / psy_rd=1.00:0.00 / mixed_ref=1 / me_range=16 / chroma_me=1 / trellis=2 / 8x8dct=1 / cqm=0 / deadzone=21,11 / fast_pskip=1 / chroma_qp_offset=-2 / threads=12 / lookahead_threads=2 / sliced_threads=0 / nr=0 / decimate=1 / interlaced=0 / bluray_compat=0 / constrained_intra=0 / bframes=5 / b_pyramid=2 / b_adapt=1 / b_bias=0 / direct=1 / weightb=1 / open_gop=0 / weightp=2 / keyint=250 / keyint_min=23 / scenecut=40 / intra_refresh=0 / rc_lookahead=40 / rc=crf / mbtree=1 / crf=17.0 / qcomp=0.60 / qpmin=0 / qpmax=69 / qpstep=4 / vbv_maxrate=40000 / vbv_bufsize=30000 / crf_max=0.0 / nal_hrd=none / filler=0 / ip_ratio=1.40 / aq=1:1.00 / zones=192140,201716,crf=22
Language : English
Default : Yes
Forced : No

Audio #1
ID : 2
Format : AC-3
Format/Info : Audio Coding 3
Codec ID : A_AC3
Duration : 2 h 20 min
Bit rate mode : Constant
Bit rate : 448 kb/s
Channel(s) : 6 channels
Channel positions : Front: L C R, Side: L R, LFE
Sampling rate : 48.0 kHz
Frame rate : 31.250 FPS (1536 SPF)
Bit depth : 16 bits
Compression mode : Lossy
Stream size : 449 MiB (8%)
Language : Spanish
Service kind : Complete Main
Default : Yes
Forced : No
任者責

fran27

  • Miembro junior
  • **
  • Desconectado Desconectado
  • Registrado: 28/12/2016
  • Mensajes: 67
  • Valoración: 3
Re:Codificación de 300 con HandBrake
« Respuesta #86: 14 de Mayo de 2018, 20:37 »
Se lo iba a bajar más, pero creo que un crf 18 es más que suficiente para un microhd 1080p.

Sobre la película, hablan muy bien de ella, por eso hice un buen rip del Remux, que los que había disponibles no me gustaban.

:saludo:

fran27

  • Miembro junior
  • **
  • Desconectado Desconectado
  • Registrado: 28/12/2016
  • Mensajes: 67
  • Valoración: 3
Re:Codificación de 300 con HandBrake
« Respuesta #87: 15 de Mayo de 2018, 22:08 »
VAN HELSING



General
Complete name               : E:\Van Helsing (1).mkv
Format                      : Matroska
Format version              : Version 4 / Version 2
File size                   : 8.13 GiB
Duration                    : 2 h 11 min
Overall bit rate            : 8 846 kb/s
Encoded date                : UTC 2018-05-15 20:04:07
Writing application         : mkvmerge v22.0.0 ('At The End Of The World') 64-bit
Writing library             : libebml v1.3.5 + libmatroska v1.4.8

Video
ID                          : 1
Format                      : AVC
Format/Info                 : Advanced Video Codec
Format profile              : High@L4.1
Format settings             : CABAC / 4 Ref Frames
Format settings, CABAC      : Yes
Format settings, ReFrames   : 4 frames
Codec ID                    : V_MPEG4/ISO/AVC
Duration                    : 2 h 11 min
Bit rate                    : 8 076 kb/s
Width                       : 1 920 pixels
Height                      : 1 040 pixels
Display aspect ratio        : 1.85:1
Frame rate mode             : Constant
Frame rate                  : 23.976 (24000/1001) FPS
Color space                 : YUV
Chroma subsampling          : 4:2:0
Bit depth                   : 8 bits
Scan type                   : Progressive
Bits/(Pixel*Frame)          : 0.169
Stream size                 : 7.42 GiB (91%)
Writing library             : x264 core 155 r2893 b00bcaf
Encoding settings           : cabac=1 / ref=4 / deblock=1:-3:-3 / analyse=0x3:0x113 / me=hex / subme=8 / psy=1 / psy_rd=1.00:0.00 / mixed_ref=1 / me_range=16 / chroma_me=1 / trellis=2 / 8x8dct=1 / cqm=0 / deadzone=21,11 / fast_pskip=1 / chroma_qp_offset=-2 / threads=32 / lookahead_threads=5 / sliced_threads=0 / nr=0 / decimate=1 / interlaced=0 / bluray_compat=0 / constrained_intra=0 / bframes=3 / b_pyramid=2 / b_adapt=1 / b_bias=0 / direct=3 / weightb=1 / open_gop=0 / weightp=2 / keyint=240 / keyint_min=24 / scenecut=40 / intra_refresh=0 / rc_lookahead=50 / rc=crf / mbtree=1 / crf=20.0 / qcomp=0.60 / qpmin=0 / qpmax=69 / qpstep=4 / vbv_maxrate=62500 / vbv_bufsize=78125 / crf_max=0.0 / nal_hrd=none / filler=0 / ip_ratio=1.40 / aq=1:1.00
Default                     : Yes
Forced                      : No
Color range                 : Limited
Color primaries             : BT.709
Transfer characteristics    : BT.709
Matrix coefficients         : BT.709

Audio
ID                          : 2
Format                      : DTS
Format/Info                 : Digital Theater Systems
Codec ID                    : A_DTS
Duration                    : 2 h 11 min
Bit rate mode               : Constant
Bit rate                    : 768 kb/s
Channel(s)                  : 6 channels
Channel positions           : Front: L C R, Side: L R, LFE
Sampling rate               : 48.0 kHz
Frame rate                  : 93.750 FPS (512 SPF)
Bit depth                   : 24 bits
Compression mode            : Lossy
Stream size                 : 722 MiB (9%)
Language                    : Spanish
Default                     : Yes
Forced                      : No

fran27

  • Miembro junior
  • **
  • Desconectado Desconectado
  • Registrado: 28/12/2016
  • Mensajes: 67
  • Valoración: 3
Re:Codificación de 300 con HandBrake
« Respuesta #88: 17 de Mayo de 2018, 16:58 »
EL BESO DEL DRAGÓN



General
Complete name               : E:\El Beso Del Dragón.mkv
Format                      : Matroska
Format version              : Version 4 / Version 2
File size                   : 4.25 GiB
Duration                    : 1 h 38 min
Overall bit rate            : 6 197 kb/s
Encoded date                : UTC 2018-05-17 12:55:10
Writing application         : mkvmerge v22.0.0 ('At The End Of The World') 64-bit
Writing library             : libebml v1.3.5 + libmatroska v1.4.8

Video
ID                          : 1
Format                      : AVC
Format/Info                 : Advanced Video Codec
Format profile              : High@L4.1
Format settings             : CABAC / 5 Ref Frames
Format settings, CABAC      : Yes
Format settings, ReFrames   : 5 frames
Codec ID                    : V_MPEG4/ISO/AVC
Duration                    : 1 h 38 min
Bit rate                    : 5 747 kb/s
Width                       : 1 920 pixels
Height                      : 812 pixels
Display aspect ratio        : 2.35:1
Frame rate mode             : Constant
Frame rate                  : 23.976 (24000/1001) FPS
Color space                 : YUV
Chroma subsampling          : 4:2:0
Bit depth                   : 8 bits
Scan type                   : Progressive
Bits/(Pixel*Frame)          : 0.154
Stream size                 : 3.94 GiB (93%)
Writing library             : x264 core 155 r2893 b00bcaf
Encoding settings           : cabac=1 / ref=5 / deblock=1:-3:-3 / analyse=0x3:0x113 / me=hex / subme=8 / psy=1 / psy_rd=1.00:0.00 / mixed_ref=1 / me_range=16 / chroma_me=1 / trellis=2 / 8x8dct=1 / cqm=0 / deadzone=21,11 / fast_pskip=1 / chroma_qp_offset=-2 / threads=25 / lookahead_threads=4 / sliced_threads=0 / nr=0 / decimate=1 / interlaced=0 / bluray_compat=0 / constrained_intra=0 / bframes=3 / b_pyramid=2 / b_adapt=1 / b_bias=0 / direct=3 / weightb=1 / open_gop=0 / weightp=2 / keyint=240 / keyint_min=24 / scenecut=40 / intra_refresh=0 / rc_lookahead=50 / rc=crf / mbtree=1 / crf=20.0 / qcomp=0.60 / qpmin=0 / qpmax=69 / qpstep=4 / vbv_maxrate=62500 / vbv_bufsize=78125 / crf_max=0.0 / nal_hrd=none / filler=0 / ip_ratio=1.40 / aq=1:1.00
Default                     : Yes
Forced                      : No
Color range                 : Limited
Color primaries             : BT.709
Transfer characteristics    : BT.709
Matrix coefficients         : BT.709

Audio
ID                          : 2
Format                      : AC-3
Format/Info                 : Audio Coding 3
Codec ID                    : A_AC3
Duration                    : 1 h 38 min
Bit rate mode               : Constant
Bit rate                    : 448 kb/s
Channel(s)                  : 6 channels
Channel positions           : Front: L C R, Side: L R, LFE
Sampling rate               : 48.0 kHz
Frame rate                  : 31.250 FPS (1536 SPF)
Bit depth                   : 16 bits
Compression mode            : Lossy
Stream size                 : 315 MiB (7%)
Language                    : Spanish
Service kind                : Complete Main
Default                     : Yes
Forced                      : No