Mensajes recientes

Páginas: [1] 2 3 ... 10 »

Iniciado por Maky Ross - Último mensaje por Maky Ross

ok entonses basta con copiar el comando, pegarlo y le doy run en el apartado mencionado y una vez sale el archivo cambio la extencion a ac3 semejante a renombrar?

2   Ayuda general / Re:peliculasen Hoy a las 12:01

Iniciado por cototo - Último mensaje por tebasuna51

En este foro se habla de software de audio/vídeo, no hay ningún enlace a películas o similares.

Iniciado por Maky Ross - Último mensaje por tebasuna51

Distintas alternativas sobre una pista de m2ts informada por eac3to como, por ejemplo:

4: E-AC3, 7.1 channels, 896kbps, 48kHz, dialnorm: -26dB
   (core: AC3, 5.1 channels, 512kbps, 48kHz, dialnorm: -26dB)

a) COMMAND LINE PARAMETERS:

4: %_4eng.eac3
4: %_4eng.ac3


Da ERROR y aborta. Inusables.

b) COMMAND LINE PARAMETERS:

4: %_4eng.ac3 -core

Se extrae el core AC3, 5.1 channels, 512 Kb/s y se recodifica a AC3 5.1 640 Kb/s
No tiene sentido recodificar un AC3 512 a 640. Opción inusable.


c) COMMAND LINE PARAMETERS:

4: %_4eng.eac3 -core

Se extrae el core AC3, 5.1 channels, 512 Kb/s y se guarda con extensión .eac3
Unica opción usable con eac3to aunque hay que cambiar a mano la extensión de .eac3 a .ac3.

d) Pulsar botón 'MkvExtract/INF':

Se abre una nueva ventana y si se selecciona la pista 4 y se da 'Run', ffmpeg se encarga de extraer la pista completa eac3


4   Administración / MOVIDO: peliculasen Hoy a las 08:19

Iniciado por Ferny - Último mensaje por Ferny

5   Ayuda general / peliculasen Hoy a las 01:14

Iniciado por cototo - Último mensaje por cototo

hola buenas tardes donde esta el menu de peliculas , no lo encuentro soy nuevo en el foro

Iniciado por Maky Ross - Último mensaje por Maky Ross

Si es correcto tebasuna el audio hace parte de un .m2ts de un bluray mi intencion es extraerlo de este conservando la calidad del mismo que me aconsejas?

Iniciado por fran27 - Último mensaje por fran27

SALYUT-7 HÉROES EN EL ESPACIO



General
Complete name               : E:\Salyut-7 Héroes En El Espacio.mkv
Format                      : Matroska
Format version              : Version 4 / Version 2
File size                   : 5.90 GiB
Duration                    : 1 h 58 min
Overall bit rate            : 7 127 kb/s
Encoded date                : UTC 2018-06-19 14:08:11
Writing application         : mkvmerge v22.0.0 ('At The End Of The World') 64-bit
Writing library             : libebml v1.3.5 + libmatroska v1.4.8

Video
ID                          : 1
Format                      : AVC
Format/Info                 : Advanced Video Codec
Format profile              : High@L4.1
Format settings             : CABAC / 5 Ref Frames
Format settings, CABAC      : Yes
Format settings, ReFrames   : 5 frames
Codec ID                    : V_MPEG4/ISO/AVC
Duration                    : 1 h 58 min
Bit rate                    : 5 202 kb/s
Width                       : 1 920 pixels
Height                      : 804 pixels
Display aspect ratio        : 2.40:1
Frame rate mode             : Constant
Frame rate                  : 24.000 FPS
Color space                 : YUV
Chroma subsampling          : 4:2:0
Bit depth                   : 8 bits
Scan type                   : Progressive
Bits/(Pixel*Frame)          : 0.140
Stream size                 : 4.30 GiB (73%)
Writing library             : x264 core 155 r2893 b00bcaf
Encoding settings           : cabac=1 / ref=5 / deblock=1:-3:-3 / analyse=0x3:0x113 / me=umh / subme=8 / psy=1 / psy_rd=1.00:0.00 / mixed_ref=1 / me_range=16 / chroma_me=1 / trellis=2 / 8x8dct=1 / cqm=0 / deadzone=21,11 / fast_pskip=1 / chroma_qp_offset=-2 / threads=25 / lookahead_threads=4 / sliced_threads=0 / nr=0 / decimate=1 / interlaced=0 / bluray_compat=0 / constrained_intra=0 / bframes=3 / b_pyramid=2 / b_adapt=1 / b_bias=0 / direct=3 / weightb=1 / open_gop=0 / weightp=2 / keyint=240 / keyint_min=24 / scenecut=40 / intra_refresh=0 / rc_lookahead=50 / rc=crf / mbtree=1 / crf=20.0 / qcomp=0.60 / qpmin=0 / qpmax=69 / qpstep=4 / vbv_maxrate=62500 / vbv_bufsize=78125 / crf_max=0.0 / nal_hrd=none / filler=0 / ip_ratio=1.40 / aq=1:1.00
Default                     : Yes
Forced                      : No
Color range                 : Limited
Color primaries             : BT.709
Transfer characteristics    : BT.709
Matrix coefficients         : BT.709

Audio
ID                          : 2
Format                      : DTS
Format/Info                 : Digital Theater Systems
Format profile              : MA / Core
Codec ID                    : A_DTS
Duration                    : 1 h 58 min
Bit rate mode               : Variable / Constant
Bit rate                    : 1 920 kb/s / 1 509 kb/s
Channel(s)                  : 6 channels
Channel positions           : Front: L C R, Side: L R, LFE
Sampling rate               : 48.0 kHz
Frame rate                  : 93.750 FPS (512 SPF)
Bit depth                   : 16 bits
Compression mode            : Lossless / Lossy
Stream size                 : 1.59 GiB (27%)
Default                     : Yes
Forced                      : No

Iniciado por Maky Ross - Último mensaje por tebasuna51

Bienvenido al foro Maky Ross.

Extraer un eac3, dts, truehd 7.1 siempre es posible extrarlos tal cual sin pérdidas.

Otra cosa es que tu equipo de audio no soporte ese tipo de formatos, o que quieras reducir su tamaño, y desees obtener un AC3 que es el formato multicanal 5.1 más compatible actualmente.

Respecto a obtener el AC3 5.1 de un E-AC3 7.1 con core AC3 5.1 lamentablemente eac3to no se comporta adecuadamente y depende de si esa pista se encuentra en un m2ts (pista de un Bluray) o en un .mkv

Si me dices cual es tu caso te haré la recomendación oportuna.

9   Manuales / Re:MANUAL UsEac3to (v1.2.9)en Ayer a las 10:16

Iniciado por tebasuna51 - Último mensaje por tebasuna51

Correcto.

Con eac3to bajar el volumen a la mitad se ponía con:

-6dB

que es un poco más difícil de entender https://es.wikipedia.org/wiki/Decibelio

Iniciado por Maky Ross - Último mensaje por Maky Ross

Hola comudiad un placer saludarlos, abro este tema con el fin de ser asesorado referente a unas inquietudes acerca de la extraccion de pistas con UsEac3to, he leido varios temas y ya se que las pistas de audio por ejemplo dts 7.1 reqieren ser extraidas en formato w64 y trabajadas en megui o que las true hd como no tiene perdida se extraen directamente en ac3 o que las que son ac3 5.1 se extraen en con el sufij ac3ffm sin embargo empezaron a salir unos audios nuevos que son E-ac3 (lenguaje), 7.1 channels, 768kbps, 48khz
                                                                    (core: ac3, 5.1 channels, 448kbps, 48khz)
la interrogante es como extraigo esta pista con UsEac3to con la menor perdida posible, las extraigo directamente en ac3, uso ac3ffm o requiere algun metodo distinto?
Páginas: [1] 2 3 ... 10 »