Mensajes recientes

Páginas: [1] 2 3 ... 10 »

Iniciado por Stefanny - Último mensaje por LuchoO


Vemos el MediaInfo del primer capitulo :

Spoiler
Complete name : I Dream Of Jeannie Complete Series Dvd Rips\I Dream of Jeannie Season 1\1x01 - The Lady in the Bottle.avi
Format : AVI
Format/Info : Audio Video Interleave
File size : 250 MiB
Duration : 24 min 35 s
Overall bit rate mode : Variable
Overall bit rate : 1 421 kb/s
Writing application : VirtualDubMod 1.5.4.1 (build 2178/release)
Writing library : VirtualDubMod build 2178/release

Video
ID : 0
Format : MPEG-4 Visual
Format profile : Advanced Simple@L5
Format settings : BVOP1 / Custom Matrix
Format settings, BVOP : 1
Format settings, QPel : No
Format settings, GMC : No warppoints
Format settings, Matrix : Custom
Codec ID : XVID
Codec ID/Hint : XviD
Duration : 24 min 35 s
Bit rate : 805 kb/s
Width : 448 pixels
Height : 336 pixels
Display aspect ratio : 4:3
Frame rate : 25.000 FPS
Color space : YUV
Chroma subsampling : 4:2:0
Bit depth : 8 bits
Scan type : Progressive
Compression mode : Lossy
Bits/(Pixel*Frame) : 0.214
Stream size : 142 MiB (57%)
Writing library : XviD 1.2.0.dev47 (UTC 2006-11-01)

Audio #1
ID : 1
Format : AC-3
Format/Info : Audio Coding 3
Codec ID : 2000
Duration : 24 min 34 s
Bit rate mode : Constant
Bit rate : 192 kb/s
Channel(s) : 2 channels
Channel positions : Front: L R
Sampling rate : 48.0 kHz
Frame rate : 31.250 FPS (1536 SPF)
Bit depth : 16 bits
Compression mode : Lossy
Stream size : 33.8 MiB (14%)
Alignment : Split accross interleaves
Interleave, duration : 96 ms (2.40 video frames)
Interleave, preload duration : 96 ms
Language : English
Service kind : Complete Main

Audio #2
ID : 2
Format : AC-3
Format/Info : Audio Coding 3
Codec ID : 2000
Duration : 24 min 34 s
Bit rate mode : Constant
Bit rate : 192 kb/s
Channel(s) : 2 channels
Channel positions : Front: L R
Sampling rate : 48.0 kHz
Frame rate : 31.250 FPS (1536 SPF)
Bit depth : 16 bits
Compression mode : Lossy
Stream size : 33.8 MiB (14%)
Alignment : Split accross interleaves
Interleave, duration : 96 ms (2.40 video frames)
Interleave, preload duration : 96 ms
Language : Français
Service kind : Complete Main

Audio #3
ID : 3
Format : MPEG Audio
Format version : Version 1
Format profile : Layer 3
Format settings : Joint stereo / MS Stereo
Codec ID : 55
Codec ID/Hint : MP3
Duration : 24 min 35 s
Bit rate mode : Variable
Bit rate : 104 kb/s
Nominal bit rate : 128 kb/s
Channel(s) : 2 channels
Sampling rate : 48.0 kHz
Frame rate : 41.667 FPS (1152 SPF)
Compression mode : Lossy
Stream size : 18.2 MiB (7%)
Alignment : Aligned on interleaves
Interleave, duration : 24 ms (0.60 video frame)
Interleave, preload duration : 177 ms
Writing library : LAME3.97 
Encoding settings : -m j -V 4 -q 2 -lowpass 17 --abr 128
Language : Deutsch

Audio #4
ID : 4
Format : MPEG Audio
Format version : Version 1
Format profile : Layer 3
Format settings : Joint stereo / MS Stereo
Codec ID : 55
Codec ID/Hint : MP3
Duration : 24 min 35 s
Bit rate mode : Variable
Bit rate : 104 kb/s
Nominal bit rate : 128 kb/s
Channel(s) : 2 channels
Sampling rate : 48.0 kHz
Frame rate : 41.667 FPS (1152 SPF)
Compression mode : Lossy
Stream size : 18.3 MiB (7%)
Alignment : Aligned on interleaves
Interleave, duration : 24 ms (0.60 video frame)
Interleave, preload duration : 177 ms
Writing library : LAME3.97 
Encoding settings : -m j -V 4 -q 2 -lowpass 17 --abr 128
Language : Italiano

Aquí vemos que el vídeo se reproduce a 25.000 FPS (pal)  ..y los subtitulo que consigues están hechos de
vídeo que se reproducen a 23.976 FPS (ntsc)  por lo tanto lo único que se puede hacer es cambiar lo sFPS del subtitulo.

Cargamos el subtitulo en SubtitleEdit

Sincronizacion->Cambiar tasa de cuadros -> 25 -> Aceptar

Por lo que veo sincroniza bien para el primer cap.

Asi debes hacer para todos los cap, ojala no se te compliquen las cosas.

Spoiler

suerte ..

* te adjunto el sub del cap 1.   

Iniciado por Stefanny - Último mensaje por Stefanny

1x01 - The Lady in the Bottle  Asi se llama el primer capitulo

y sobre su procedencia como dije lo descargue con torret, exactamente de esta pagina

https://thepiratebay.org/torrent/4966203/I_Dream_Of_Jeannie_Complete_Series_Dvd_Rips

Iniciado por Anthrax1 - Último mensaje por LuchoO

Cita de: LuchoO
En la ultima tendriamos que tomar en cuenta si nuestro reproductor es de los standar antiguos que solo soportan hasta 720 de ancho, entonces tomamos en cuenta esa limitacion y;

720 ÷ 1.66  = 433.7  =>  434

Bueno aqui lo dividi a modo general, por supuesto que tenia que bajarlo a 432 para que sea mod 16 y habia que hacerlos asi..

No ha cambiado nada.

 :saludo:




Iniciado por Anthrax1 - Último mensaje por Anthrax1

Bueno amigos, les agradezco todas sus respuestas, que han despejado mis dudas, por lo tanto, creo que el tema a sido solucionado, salvo que LuchoO aclaré sobre lo de mod16, sino, me quedo con la idea que los xvid deben ser tratados en este modo.

No sé si exista algún botón de "solucionado", por ello no lo he marcado.

Saludos y hasta la próxima!!  :saludo:

Iniciado por Stefanny - Último mensaje por jj35

Hola y Bienvenida ..

Primeramente debes tener la pelicula y luego conseguir los subtitulos. No al revés.

Siempre las películas detallan en el titulo algunas especificaciones respecto a su procedencia u otros detalles. así podemos buscar subtitulo acordes al vídeo.

También revisamos con MediaInfo algunas especificaciones técnicas, como duración, fps ... para saber si los subtítulos corresponden.

Cual es el titulo original de tu pelicula? 

 :saludo: 



Hola a ambos Stefanny y Lucho, perdón por inmiscuirme en vuestro dialogo, solo decir "con perdón por parte de ambos" que se necesita como dijo Lucho la información de ambos "peli y subs". de esa forma Lucho y otros saben y pueden aconsejar, (yo no se, soy un aprendiz, bastante malo),  si no es dar palos de ciego.

Iniciado por Stefanny - Último mensaje por LuchoO

Sigue esta pequeña Guia de MediaInfo para saber de que vide se trata .

Justamente queria saber el nombre y procedencia para ver si lo puedo checar con los subs..

 :saludo:

MediaInfo

Iniciado por Stefanny - Último mensaje por Stefanny

Lo siento a que te refieres con "el nombre del torrent", osea te digo como se llaman los videos????

8   Autoría / Re:Audio de celda no se reproduceen 22 de Mayo de 2018, 16:15

Iniciado por sphynx - Último mensaje por sphynx

Bienvenid@ sphynx..

No puedo recrear un menu con tu situacion por el momento. (DVDLab no instalado)

Porque en lugar de hacer el menu con 2 cell y la 1 es introductoria, mejor haces un menu simple y antes del menu añades el video de introduccion ..

Utiliza el buscador hay muchos post que te pueden ayudar.

 :saludo:
En primer lugar gracias por responder,
el caso es que así lo hice en primera instancia , lo que ocurre es que la introduccion es un video que acaba con una transicion y el menu principal va apareciendo paulatinamente hasta llegar al menu principal real, al hacerlo en 2 videos, se ve el salto de la transicion al menu, otro modo que pensé es salir del menu al finalizar la cell 2 y volver a la cell 2 como si lo llamara desde un menu exterior, ya que como dije anteriormente, desde otros menus al volver funciona bien, (pero aun no se como), seguro que hay un modo, seguiré indagando y cuando encuentre la solución la compartiré con la comunidad, ¡un cordial saludo!

9   Manuales / Script y Pluginsen 22 de Mayo de 2018, 15:12

Iniciado por Perico el del Palote - Último mensaje por gus_123

Overdrive muchas gracias por este manual. Pero ahun tengo una duda al cargar e instalar los plugins (que no son .dll) como el ffms2 y scripts con carpetas a su interior del file zip.

Mi O.S. es Windows 10

10   Autoría / Re:Audio de celda no se reproduceen 22 de Mayo de 2018, 14:49

Iniciado por sphynx - Último mensaje por LuchoO

Bienvenid@ sphynx..

No puedo recrear un menu con tu situacion por el momento. (DVDLab no instalado)

Porque en lugar de hacer el menu con 2 cell y la 1 es introductoria, mejor haces un menu simple y antes del menu añades el video de introduccion ..

Utiliza el buscador hay muchos post que te pueden ayudar.

 :saludo:

 
Páginas: [1] 2 3 ... 10 »