Mensajes recientes

Páginas: [1] 2 3 ... 10 »

Iniciado por fran27 - Último mensaje por fran27

PROYECTO RAMPAGE



General
Complete name               : E:\Proyecto Rampage.mkv
Format                      : Matroska
Format version              : Version 4 / Version 2
File size                   : 4.71 GiB
Duration                    : 1 h 47 min
Overall bit rate            : 6 282 kb/s
Encoded date                : UTC 2018-07-17 13:19:17
Writing application         : mkvmerge v22.0.0 ('At The End Of The World') 64-bit
Writing library             : libebml v1.3.5 + libmatroska v1.4.8

Video
ID                          : 1
Format                      : AVC
Format/Info                 : Advanced Video Codec
Format profile              : High@L4.1
Format settings             : CABAC / 5 Ref Frames
Format settings, CABAC      : Yes
Format settings, ReFrames   : 5 frames
Codec ID                    : V_MPEG4/ISO/AVC
Duration                    : 1 h 47 min
Bit rate                    : 5 832 kb/s
Width                       : 1 920 pixels
Height                      : 800 pixels
Display aspect ratio        : 2.40:1
Frame rate mode             : Constant
Frame rate                  : 23.976 (24000/1001) FPS
Color space                 : YUV
Chroma subsampling          : 4:2:0
Bit depth                   : 8 bits
Scan type                   : Progressive
Bits/(Pixel*Frame)          : 0.158
Stream size                 : 4.37 GiB (93%)
Writing library             : x264 core 155 r2901 7d0ff22
Encoding settings           : cabac=1 / ref=5 / deblock=1:-3:-3 / analyse=0x3:0x113 / me=umh / subme=8 / psy=1 / psy_rd=1.00:0.00 / mixed_ref=1 / me_range=16 / chroma_me=1 / trellis=2 / 8x8dct=1 / cqm=0 / deadzone=21,11 / fast_pskip=1 / chroma_qp_offset=-2 / threads=25 / lookahead_threads=4 / sliced_threads=0 / nr=0 / decimate=1 / interlaced=0 / bluray_compat=0 / constrained_intra=0 / bframes=3 / b_pyramid=2 / b_adapt=1 / b_bias=0 / direct=3 / weightb=1 / open_gop=0 / weightp=2 / keyint=240 / keyint_min=24 / scenecut=40 / intra_refresh=0 / rc_lookahead=50 / rc=crf / mbtree=1 / crf=21.0 / qcomp=0.60 / qpmin=0 / qpmax=69 / qpstep=4 / vbv_maxrate=62500 / vbv_bufsize=78125 / crf_max=0.0 / nal_hrd=none / filler=0 / ip_ratio=1.40 / aq=1:1.00
Default                     : Yes
Forced                      : No
Color range                 : Limited
Color primaries             : BT.709
Transfer characteristics    : BT.709
Matrix coefficients         : BT.709

Audio
ID                          : 2
Format                      : AC-3
Format/Info                 : Audio Coding 3
Codec ID                    : A_AC3
Duration                    : 1 h 47 min
Bit rate mode               : Constant
Bit rate                    : 448 kb/s
Channel(s)                  : 6 channels
Channel positions           : Front: L C R, Side: L R, LFE
Sampling rate               : 48.0 kHz
Frame rate                  : 31.250 FPS (1536 SPF)
Bit depth                   : 16 bits
Compression mode            : Lossy
Stream size                 : 344 MiB (7%)
Service kind                : Complete Main

Iniciado por Choyin - Último mensaje por spyderman

Agradecidísimo por el interés que pusistes en contestar, me ha quedado bastane claro.

¡Muchas gracias y fuerte saludo!

Iniciado por Yashmak - Último mensaje por tebasuna51

Y no olvides este:

Error while decoding stream #0:1: Invalid data found when processing input

que significa que el archivo de entrada está corrupto.

En Windows te propondría alguna prueba más antes de abandonar, pero con MAC me rindo.

Iniciado por Yashmak - Último mensaje por Yashmak

Me tira estos dos errores:

[ac3 @ 0x7ff6dd002e00] exponent 30 is out-of-rangets/s speed= 190x   
[ac3 @ 0x7ff6dd002e00] error decoding the audio block

Iniciado por Yashmak - Último mensaje por Yashmak

He estado trasteando con el ffmpeg, la primera conversión me salió bien, pero la segunda me da error y no me genera ningún archivo de audio. Pongo a continuación el error que me tira.

Spoiler
iMac-de-Usuario:~ Usuario$ ffmpeg -i "/Users/Usuario/Desktop/a.avi" -af atempo=0.959041 -acodec ac3 -ab 448k -center_mixlev 0.707 libronegro.ac3
ffmpeg version 4.0.1 Copyright (c) 2000-2018 the FFmpeg developers
  built with Apple LLVM version 9.0.0 (clang-900.0.39.2)
  configuration: --prefix=/usr/local/Cellar/ffmpeg/4.0.1 --enable-shared --enable-pthreads --enable-version3 --enable-hardcoded-tables --enable-avresample --cc=clang --host-cflags= --host-ldflags= --enable-gpl --enable-libmp3lame --enable-libx264 --enable-libxvid --enable-opencl --enable-videotoolbox --disable-lzma
  libavutil      56. 14.100 / 56. 14.100
  libavcodec     58. 18.100 / 58. 18.100
  libavformat    58. 12.100 / 58. 12.100
  libavdevice    58.  3.100 / 58.  3.100
  libavfilter     7. 16.100 /  7. 16.100
  libavresample   4.  0.  0 /  4.  0.  0
  libswscale      5.  1.100 /  5.  1.100
  libswresample   3.  1.100 /  3.  1.100
  libpostproc    55.  1.100 / 55.  1.100
Input #0, avi, from '/Users/Usuario/Desktop/a.avi':
  Metadata:
    encoder         : VirtualDubMod 1.4.13
  Duration: 02:14:02.48, start: 0.000000, bitrate: 1398 kb/s
    Stream #0:0: Video: mpeg4 (Advanced Simple Profile) (XVID / 0x44495658), yuv420p, 512x320 [SAR 1:1 DAR 8:5], 1196 kb/s, 25 fps, 25 tbr, 25 tbn, 25 tbc
    Stream #0:1: Audio: ac3 ([0]
  • [0] / 0x2000), 48000 Hz, stereo, fltp, 192 kb/s

Stream mapping:
  Stream #0:1 -> #0:0 (ac3 (native) -> ac3 (native))
Press [q] to stop, [?] for help
[ac3 @ 0x7fe85a806000] frame sync error
Error while decoding stream #0:1: Invalid data found when processing input
Output #0, ac3, to 'libronegro.ac3':
  Metadata:
    encoder         : Lavf58.12.100
    Stream #0:0: Audio: ac3, 48000 Hz, stereo, fltp, 448 kb/s
    Metadata:
      encoder         : Lavc58.18.100 ac3
[ac3 @ 0x7fe85a806000] exponent 30 is out-of-rangets/s speed= 166x   
[ac3 @ 0x7fe85a806000] error decoding the audio block
Error while decoding stream #0:1: Error number -16976906 occurred
[ac3 @ 0x7fe85a806000] incomplete framee= 447.8kbits/s speed= 170x   
size=  458589kB time=02:19:45.62 bitrate= 448.0kbits/s speed= 170x   
video:0kB audio:458589kB subtitle:0kB other streams:0kB global headers:0kB muxing overhead: 0.000000%

Iniciado por Choyin - Último mensaje por tebasuna51

El vídeo 'oficial' del MP4 es el MPEG4-AVC (h264) y el audio 'oficial' es el AAC.
Así que el reproductor que soporte MP4 debe, por obligación, soportar esos dos codecs.

El contenedor MKV admite muchos más codecs de vídeos, audios y subs.
Algún reproductor que diga soportar MKV puede no soportar todos los codecs.
Así es posible que aunque se soporte el contenedor MKV no se soporte algún codec, por ejemplo el reciente codec de vídeo HEVC (h265) no siempre es soportado (así como algunos otros codecs no muy frecuentes)

------------------------------------------ AUDIOS

Para empezar, cualquier recodificación implica una cierta pérdida.
La cuestión es minimizarla u obtener la calidad cercana en en formato más compatible o eficiente.

La cuestión de la compatibilidad es primordial y nos obliga a diferenciar dos tipos de audios: estéreo y multicanal.

Un audio estéreo AAC es totalmente compatible con cualquier reproductor que lo soporte y cualquier equipo de audio.
Por tanto al ser más eficiente que el AC3 este será el formato final recomendado.

Un audio multicanal AAC puede ser compatible con el reproductor pero no con el equipo de audio y su conexionado.
Los equipos de audio multicanal, en su mayoría actualmente, no soportan la decodificación AAC.
Por ello el reproductor debe decodificarlo y enviar PCM multicanal, y eso solo es posible por un conector HDMI y en ciertas circunstancias.
En cambio todos los equipos de audio multicanal soportan la decodificación AC3 (no siempre DTS y por ello siempre se prefiere AC3) y el reproductor puede enviar el audio sin decodificar por una conexión SPDIF mucho más estandar (TV's y PC's como reproductores).

La pregunta del hilo ¿Qué tipo de audio es mejor, AAC o AC3? debe responderse así:

El AAC es más eficiente (mejor relación calidad/tamaño) pero el AC3 multicanal es más compatible.

---------------------------------------------------------- BITRATES y TABLAS

Tanto el DTS como el AC3 estandar son formatos a bitrate constante (CBR) con una tabla de conversión muy sencilla dado que el DTS estandar solo tiene 2 transmision bitrates posibles (hablando de multicanal claro, si el DTS es estéreo convertir a AAC):

DTS 1536 -> AC3 640 (es el máximo del AC3, el 754 no existe)
DTS  768  -> AC3 448 (tipo DVD)

Parte de la ventaja del AAC sobre el AC3 es que puede codificarse a bitrate variable (VBR) lo que significa que se emplea menos bitrate en los silencios y diálogos y más en las partes musicales o de efectos. En bandas sonoras de pelis esta característica es fundamental para obtener la mayor eficiencia de la codificación.
Como consecuencia de esto no es posible hacer una tabla entre CBR y VBR dado que dependen totalmente de la fuente.
Pero lo que parece un problema realmente es una ventaja ya que al codificar a AAC nos olvidamos de tablas y simplemente elegimos calidad según nuestra preferencia, incluso sin saber si la fuente es estéreo o multicanal.

Según el codificador que se use recomendaría lo siguiente:

Código: [Seleccionar]
Nero     Qaac   Calidad
------  ------  -------------------
q 0.35  -V 54   Mínima recomendable
q 0.5   -V 91   Buena calidad
q 0.7   -V 125  Máxima recomendable

La mínima para fuentes dudosas de baja calidad.
La buena para buenas fuentes.
La máxima para fuentes sin pérdidas como FLAC, DTS-MA, TrueHD...
Y cualquier valor intermedio según gustos.

Iniciado por Yashmak - Último mensaje por jj35

Supongo que ffmpeg debe ser igual que en Windows, linea de comandos, filtros y opciones. Lo mejor si piensas usar ffmpeg es leer su ayuda en lo que se necesita (es amplia), después poco a poco se aprende lo que uno usa.

Tebasuna ya te dio una muy... buena opción para el audio que necesitas.

Cada vídeo necesita su tratamiento para lo que queremos como final, cada uno usará opciones a su gusto, así que generalizar no es conveniente. Si se codifica vídeo/audio con usar la opción -r fotogramas*segundo, ffmpeg convierte vídeo/audio a fotogramas*segundo, bueno yo así lo e echo y no tuve problemas.

ffmpeg no necesita instalación se descomprime el paquete en una carpeta y ffmpeg está en la carpeta bin, desde esa carpeta se ejecuta directamente o se escribe la ruta  a ffmpeg: c:\portable\ffmpeg-win-64\bin\ffmpeg.exe -i "unidad:\ruta\entrada-video.ext" (opciones de video/audio) "unidad:\ruta\salida-video.ext"

De maquina virtual no puedo decir nada pues no instalé nunca, pero dicen que funciona muy bien, supongo que será probar y ver resultados, casi mejor esta opción.

Iniciado por Choyin - Último mensaje por spyderman

¡Hola!
Yo tenía entendido que cualquier reproductor que soportase MKV o MP4 lo eran también del AAC, ya que que el AVC y el AAC están emparentados ¿es así?

También leí que una forma de calcula el bitrate idóneo del AAC con respecto al AC3 era dividiendo por 2,5 el de este último, ejemplo:

AC3 640kbps / 2,5 = 256kbps AAC

En AC3 desde un DTS:
DTS 1509kbps / 2 = 754kbps AC3

¿Es correcto o se trata de calculos a la ligera?

¡Saludos y Gracias por vuestra atención!

PD: ¿Existe alguna tabla de equivalencias de bitrates para convertir entre formatos?

Iniciado por Yashmak - Último mensaje por Yashmak

jj35 puedes explicarme un poco cómo se instala y cómo se utiliza ffmpeg? No tengo mucha idea y me gustaría seguir pudiendo trabajar desde apple. Sólo me interesa lo de cambiar los audios de 23976 24000 y 25000... pero es que no tengo idea ni de cómo instalar el programa ni de cómo realizar las conversiones.

Iniciado por Yashmak - Último mensaje por jj35

Puedes instalar una máquina virtual e instalar windows, por ejemplo "VirtualBox" desconozco si funcionará MeGUI igual o no, ffmpeg seguro que funciona perfecto (sin virtual), aunque cuesta acostumbrarse bastante.

Páginas: [1] 2 3 ... 10 »